注册 登录  
 加关注
   显示下一条  |  关闭
温馨提示!由于新浪微博认证机制调整,您的新浪微博帐号绑定已过期,请重新绑定!立即重新绑定新浪微博》  |  关闭

逆风飞翔的鸟

追逐风中散落的默契~

 
 
 

日志

 
 
关于我

曾经迷惑于一份距离 曾经感动于一个传说 …… 在仆仆风中 我伸手 抓住你我的缘分 …… “傻傻”的你 能闻到风中 你我的默契吗?!

网易考拉推荐

【亚洲】The.Private.Eyes.1976.半斤八两  

2012-05-21 10:16:24|  分类: 亚洲 |  标签: |举报 |字号 订阅

  下载LOFTER 我的照片书  |
【亚洲】The.Private.Eyes.1976.半斤八两 - 归鸿 - 归鸿影音

◎譯  名 半斤八兩
◎片  名 The Private Eyes
◎年  代 1976
◎國  家 中國香港
◎類  別 喜劇
◎語  言 普通話/粵語
◎字  幕 繁體中文/英文
◎IMDB鏈結  http://www.imdb.com/title/tt0074179
◎片  長 92 Mins
◎導  演 許冠文 Michael Hui
◎主  演 許冠文 Michael Hui  ....Joseph Wong
       許冠傑 Sam Hui  ....Lee Kwok-kit
       許冠英 Ricky Hui  ....Pighead
       趙雅芝 Angie Chiu  ....Jacky
       吳耀漢 Richard Ng  ....Police Officer
       石堅 Shih Kien  ....Gang Leader
       朱牧 Mu Zhu
       高雄 Eddy Ko
       火星 Mars
       曾楚霖 Choh Lam Tsang
       張俊英 Jang Joon-yeong
       陳劍雲 Kim Wan Chan
       梁舜燕 Shun-Yin Leung
       盧慧芝 Wai Chi Lo
       鄭少萍 Siu Ping Cheng
       吳傑強 Kit Keung Ng
       黃志強 Kirk Wong
       蕭錦 Chin Hsiao
       陳立品 Maria Chan
       餘慕蓮 Miu Lin Chui
       陳會毅 Billy Chan
       許冠武 Stanley Hui
       神仙 Hsien Sheng
       黃哈 Ha Huang
       
 
◎簡  介 
 
  萬能私家偵探社是一家連同社長黃若思(許冠文)在內只有三名工作人員的小偵探社,由於生意不鹹不淡,加上黃若思為人小氣刻薄,員工河豚(許冠英)和積琪(趙雅芝),尤其前者沒少遭罪。原在汽水廠上班的李國傑(許冠傑)因工作偷懶被老闆解雇,一身好功夫的他來到萬能求職,黃若思起初不肯雇用,隨後見他的確有兩把刷子,應了下來,薪水自然苛刻。
 
  李國傑沒來之前,黃若思與河豚搭檔偵探的,無非一些風流、偷竊、欺詐事務,這些案件不是每一都能偵破,而偵破的過程常常充滿尷尬,遠稱不上完美,但其時香港社會的百態卻一覽無遺。他來之後,三人的合作亦是如此。更要命的,是他們常被警探(吳耀漢)誤視作不法分子。
 
  幾件不大不小的案子,尤其八十歲老翁的嬌妻(盧慧芝)在外與人(吳耀漢)偷情一案辦過,李國傑顯現出比黃若思更強的工作能力,更得客戶青睞。某日,黃若思與李國傑受委託來到某家先前被劫匪威脅、現有劫匪出入的戲院,捕捉劫匪的過程中,黃若思被匪首(石堅)的幾聲槍響嚇破膽且負傷,李國傑卻憑機智將劫匪制服並收穫意外好處,兩人身份一時對調。 
 
幕後製作
 
    《半斤八兩》是許氏兄弟具有里程碑意義的一部電影,使許冠傑在歌壇影壇都成為了最炙手可熱的天皇巨星。這部影片一上映就打破了當時的票房紀錄,在日本也掀起一陣熱潮,79年重映時又創重映賣座記錄。在影片中許冠文尖酸刻薄,許冠傑老實英勇和許冠英傻裏傻氣,三者的人物性格很好的結合在一起,把一個偵探社發生的故事演繹得讓人捧腹不已,被譽為20世紀香港最具諷刺的電影。這部電影在人物性格刻畫方面相當成功,三兄弟在影片中都有自己鮮明的性格,接近大眾,沒有明顯的好人壞人之分,有的只是生活中的家長里短。大量諷刺情節的選用,從內容上和當時人的生活都有著強烈的共鳴,反映出了許多人內心的聲音。同時配以經典的音樂使得影片更加豐富全面。當時的許冠傑在歌壇影響力巨大,有“歌神”之稱,所以在每部片發片之前,都由許冠傑推出一張同名大碟,待主題曲唱至街知巷聞之際再發片,這樣的行銷戰略自然使得影片的銷售事半功倍。

 

  General #1
    ID : 1 (0x1)
    Complete name : 00000.m2ts
    Format : BDAV
    Format/Info : Blu-ray Video
    File size : 20.9 GiB
    Duration : 1h 36mn
    Overall bit rate mode : Variable
    Overall bit rate : 31.0 Mbps
    Maximum Overall bit rate : 35.5 Mbps
  Video #4113
    ID : 4113 (0x1011)
    Menu ID : 1 (0x1)
    Format : AVC
    Format/Info : Advanced Video Codec
    Format profile : High@L4.1
    Format settings, CABAC : Yes
    Format settings, ReFrames : 4 frames
    Format settings, GOP : M=3, N=24
    Codec ID : 27
    Duration : 1h 36mn
    Bit rate mode : Variable
    Bit rate : 26.8 Mbps
    Maximum bit rate : 32.0 Mbps
    Width : 1 920 pixels
    Height : 1 080 pixels
    Display aspect ratio : 16:9
    Frame rate : 23.976 fps
    Standard : NTSC
    Color space : YUV
    Chroma subsampling : 4:2:0
    Bit depth : 8 bits
    Scan type : Progressive
    Bits/(Pixel*Frame) : 0.539
    Stream size : 18.0 GiB (86%)
    Color primaries : BT.709-5, BT.1361, IEC 61966-2-4, SMPTE RP177
    Transfer characteristics : BT.709-5, BT.1361
    Matrix coefficients : BT.709-5, BT.1361, IEC 61966-2-4 709, SMPTE RP177
  Audio #4352
    ID : 4352 (0x1100)
    Menu ID : 1 (0x1)
    Format : DTS
    Format/Info : Digital Theater Systems
    Format profile : MA / Core
    Muxing mode : Stream extension
    Codec ID : 134
    Duration : 1h 35mn
    Bit rate mode : Variable
    Bit rate : 2 365 Kbps / 1 510 Kbps
    Channel(s) : 8 channels / 6 channels
    Channel positions : Front: L C R, Side: L R, Back: L R, LFE / Front: L C R, Side: L R, LFE
    Sampling rate : 48.0 KHz
    Bit depth : 16 bits
    Compression mode : Lossless / Lossy
    Language : Chinese
  Audio #4353
    ID : 4353 (0x1101)
    Menu ID : 1 (0x1)
    Format : AC-3
    Format/Info : Audio Coding 3
    Codec ID : 129
    Duration : 1h 36mn
    Bit rate : 640 Kbps
    Channel(s) : 5 channels
    Sampling rate : 48.0 KHz
    Compression mode : Lossy
    Stream size : 440 MiB (2%)
    Language : Chinese
  Text #4608
    ID : 4608 (0x1200)
    Menu ID : 1 (0x1)
    Format : PGS
    Codec ID : 144
    Language : Chinese
  Text #4609
    ID : 4609 (0x1201)
    Menu ID : 1 (0x1)
    Format : PGS
    Codec ID : 144
    Language : English

  评论这张
 
阅读(151)| 评论(0)
推荐 转载

历史上的今天

在LOFTER的更多文章

评论

<#--最新日志,群博日志--> <#--推荐日志--> <#--引用记录--> <#--博主推荐--> <#--随机阅读--> <#--首页推荐--> <#--历史上的今天--> <#--被推荐日志--> <#--上一篇,下一篇--> <#-- 热度 --> <#-- 网易新闻广告 --> <#--右边模块结构--> <#--评论模块结构--> <#--引用模块结构--> <#--博主发起的投票-->
 
 
 
 
 
 
 
 
 
 
 
 
 
 

页脚

网易公司版权所有 ©1997-2017