注册 登录  
 加关注
   显示下一条  |  关闭
温馨提示!由于新浪微博认证机制调整,您的新浪微博帐号绑定已过期,请重新绑定!立即重新绑定新浪微博》  |  关闭

逆风飞翔的鸟

追逐风中散落的默契~

 
 
 

日志

 
 
关于我

曾经迷惑于一份距离 曾经感动于一个传说 …… 在仆仆风中 我伸手 抓住你我的缘分 …… “傻傻”的你 能闻到风中 你我的默契吗?!

网易考拉推荐

【动作】You.Only.Live.Once.1937.霹雳行动队  

2012-05-21 12:02:03|  分类: 动作 |  标签: |举报 |字号 订阅

  下载LOFTER 我的照片书  |
【动作】You.Only.Live.Once.1937.霹雳行动队 - 归鸿 - 归鸿影音

◎译  名 霹雳行动队/少妇故事
◎片  名 You Only Live Once
◎年  代 1937
◎国  家 美国 
◎类  别 黑色电影/剧情/犯罪  
◎语  言 英语 
◎IMDB链接  http://www.imdb.com/title/tt0029808/
◎片  长 86 mins
◎导  演 弗里茨·朗 Fritz Lang
◎主  演 西尔维娅·西德尼 Sylvia Sidney  ....Joan Graham Taylor
       亨利·方达 Henry Fonda  ....Eddie Taylor
       Barton MacLane  ....Stephen Whitney
       Jean Dixon  ....Bonnie Graham
       玛格丽特·哈米尔顿 Margaret Hamilton  ....Hester
       沃德·邦德 Ward Bond  ....Casey, guard (uncredited)
       William Gargan  ....Father Dolan
       Jerome Cowan  ....Dr. Hill
       Charles 'Chic' Sale  ....Ethan (as Chic Sale)
       Warren Hymer  ....Buggsy
       John Wray  ....Warden Wheeler
       杰克·卡森 Jack Carson  ....Attendant in first gas station (uncredited)
       Jack Cheatham  ....Prison hospital guard (uncredited)
      

◎简  介 
 
  乔安是一个年轻美丽的姑娘,她是一个大城市的公共治安防卫队的秘书。由于工作的原因,她经常要与那些犯罪分子打交道。在这个过程中,乔安深深爱上了一个英俊潇洒的职业犯罪分子,这个犯罪分子名叫艾迪。乔安相信艾迪本质上是一个很好的人,只是因为无法克服自身的某些缺陷而走上了犯罪的道路。在强烈的爱情的驱使下,她决定要自己的感情和善良温柔的心感化艾迪,希望艾迪能够提前释放出狱,回到正确的人生轨道上来。在乔安的爱心的抚慰和帮助下,艾迪很快出狱了,并且与乔安结了婚。但是,艾迪并没有改邪归正,而是依然不改犯罪的本性。在警察的追捕下,艾迪和乔安只好踏上了逃亡之路。
 

◎一句话评论
 
He robbed... kidnapped... he murdered... Because of the love of one woman!
 

◎幕后制作
 
  《霹雳行动队》首先引人注目的是其导演弗里茨·朗,弗里茨·朗原籍德国,是表现主义电影的大师,他指导的作品《大都市》和《M就是凶手》已经成为世界电影史上的绝对经典,是所有电影爱好者必备的珍藏品。弗里茨·朗在希特勒上台之际离开德国来到好莱坞发展,在好莱坞期间,他指导了几部电影,但由于好莱坞的极度商业化的环境,使得弗里茨·朗无法施展自己的才华,因此这几部电影都不太成功。本片就是弗里茨·朗不太为人所知的影片之一。影片的叙事技巧和摄影风格明显具有表现主义色彩,它的独特的取镜角度对后来的黑色电影具有明显的影响。

 

  General #1
    ID : 1 (0x1)
    Complete name : 00000.m2ts
    Format : BDAV
    Format/Info : Blu-ray Video
    File size : 19.6 GiB
    Duration : 1h 25mn
    Overall bit rate mode : Variable
    Overall bit rate : 32.7 Mbps
    Maximum Overall bit rate : 35.5 Mbps
  Video #4113
    ID : 4113 (0x1011)
    Menu ID : 1 (0x1)
    Format : AVC
    Format/Info : Advanced Video Codec
    Format profile : High@L4.1
    Format settings, CABAC : Yes
    Format settings, ReFrames : 4 frames
    Codec ID : 27
    Duration : 1h 25mn
    Bit rate mode : Variable
    Bit rate : 31.1 Mbps
    Maximum bit rate : 38.0 Mbps
    Width : 1 920 pixels
    Height : 1 080 pixels
    Display aspect ratio : 16:9
    Frame rate : 24.000 fps
    Color space : YUV
    Chroma subsampling : 4:2:0
    Bit depth : 8 bits
    Scan type : Progressive
    Bits/(Pixel*Frame) : 0.626
    Stream size : 18.7 GiB (95%)
    Color primaries : BT.709-5, BT.1361, IEC 61966-2-4, SMPTE RP177
    Transfer characteristics : BT.709-5, BT.1361
    Matrix coefficients : BT.709-5, BT.1361, IEC 61966-2-4 709, SMPTE RP177
  Audio #4352
    ID : 4352 (0x1100)
    Menu ID : 1 (0x1)
    Format : AC-3
    Format/Info : Audio Coding 3
    Codec ID : 129
    Duration : 1s 440ms
    Bit rate : 224 Kbps
    Channel(s) : 2 channels
    Sampling rate : 48.0 KHz
    Compression mode : Lossy
    Stream size : 39.4 KiB (0%)
    Language : English
  Text #4608
    ID : 4608 (0x1200)
    Menu ID : 1 (0x1)
    Format : PGS
    Codec ID : 144
    Language : Chinese
  Text #4609
    ID : 4609 (0x1201)
    Menu ID : 1 (0x1)
    Format : PGS
    Codec ID : 144
    Language : English

  评论这张
 
阅读(116)| 评论(0)
推荐 转载

历史上的今天

在LOFTER的更多文章

评论

<#--最新日志,群博日志--> <#--推荐日志--> <#--引用记录--> <#--博主推荐--> <#--随机阅读--> <#--首页推荐--> <#--历史上的今天--> <#--被推荐日志--> <#--上一篇,下一篇--> <#-- 热度 --> <#-- 网易新闻广告 --> <#--右边模块结构--> <#--评论模块结构--> <#--引用模块结构--> <#--博主发起的投票-->
 
 
 
 
 
 
 
 
 
 
 
 
 
 

页脚

网易公司版权所有 ©1997-2017