注册 登录  
 加关注
   显示下一条  |  关闭
温馨提示!由于新浪微博认证机制调整,您的新浪微博帐号绑定已过期,请重新绑定!立即重新绑定新浪微博》  |  关闭

逆风飞翔的鸟

追逐风中散落的默契~

 
 
 

日志

 
 
关于我

曾经迷惑于一份距离 曾经感动于一个传说 …… 在仆仆风中 我伸手 抓住你我的缘分 …… “傻傻”的你 能闻到风中 你我的默契吗?!

网易考拉推荐

【剧情】Joe.Somebody.2001.大人物乔  

2012-05-20 19:15:46|  分类: 剧情 |  标签: |举报 |字号 订阅

  下载LOFTER 我的照片书  |
【剧情】Joe.Somebody.2001.大人物乔 - 归鸿 - 归鸿影音

◎译  名 叫我第一名/大人物乔
 ◎片  名 JoeSomebody
 ◎年  代 2001
 ◎国  家 美国
 ◎类  别 喜剧/爱情/剧情
 ◎语  言 英语
 ◎IMDB链接  http://www.imdb.com/title/tt0279889/
 ◎片  长 98min
 ◎导  演 JohnPasquin
 ◎主  演 蒂姆·艾伦TimAllen....JoeScheffer
       朱丽·鲍温JulieBowen....MegHarper
       凯莉·林奇KellyLynch....CallieScheffer
       格雷格·格曼GregGermann....Jeremy
       海顿·潘妮蒂尔HaydenPanettiere....NatalieScheffer
       帕特里克·沃伯顿PatrickWarburton....MarkMcKinney
       詹姆斯·贝鲁什JamesBelushi....ChuckScarett(asJimBelushi)
       肯·马里诺KenMarino....RickRaglow
       WolfgangBodison....CadeRaymond
       CristiConaway....AbbyManheim
       罗伯特·乔伊RobertJoy....PatChilcutt
       TinaLifford....CassandraTaylor
       JamesCada....Bill,Executive
       TawnjaZahradka....Waver'Tawnja'
       AhnaBrandvik....Neva
       JohnRiedlinger....InCrowdGuy#1
       BillMcCallum....InCrowdGuy#2
       GavinLawrence....InCrowdGuy
       AmyJanetteMcDonald....Reporter
       EmilHerrera....SingingExecutive
       MichaelHaley....Bartender
       PeterSyvertsen....SquashExecutive#1(asPeterEricSyvertsen)
       PeterGregoryThomson....SquashExecutive#2
       ClaudiaWilkens....Deidre
       JimmyLabriola....FightBookie(asJimLabriola)
       RossTurner....BasketballBoy
       MichelleBarnes....Sharone8
       SarahConeff....FreckleFacedBasketballPlayer
       BritneyMcNeal....OtherBasketballPlayer
       BobAden....OldMan
       RodJohnson....TimberwolvesAnnouncer!
       SeanGrande....PlaybyPlayAnnouncer
       杰西·温图拉JesseVentura....Himself
       JeffHopkins....FirstMan
       JaneHajduk....Club13Receptionist1
       LowellSanders....GuyatFight#2
       RobCowin....GuyatFight#3
       PatrickCoyle....ManinParking
       CeanOkada....YoungWoman
       FrankE.Adams....FruitCatcher
       科特·大卫·安德森KurtDavidAnderson....TargetEmployee
       BillBorea....MuscleMasseur(asWilliamBorea)
       BrentSeltzer....STARKeCommercialVoiceover(voice)
       DaveRyan....MinnesotaDJ
       SarahAgnew....WellWisher(uncredited)
       AndyBethke....STARKeEmployee(uncredited)
       DanielleDurham....CheerleaderinPlay(uncredited)
       TeenaFlowers....OfficeWorker(uncredited)
       CharlesHubbell....(uncredited)
       ShawnJudge....Woman#1(uncredited)6
       DianeKelson....WomanShopping(uncredited)
       BillieJoKonze....Woman(uncredited)
       WilliamT.Leaf....FruitCatcher(uncredited)
       JoshMinnie....AudienceMember(uncredited)
       RobbRoss....Officeworker(uncredited)
       MehrdadSarlak....ManatKaraokeBar(uncredited)
       MarquettaSenters....Linda(uncredited)
       EdwardF.Villaume....Athlete(uncredited)
       RaganWallake....Trainer(uncredited)
       JimWestcott....BusinessmanatFightScene(uncredited)
       MikeWielinski....STARKeEmployee(uncredited)
       KathleenWinter....FruitCatcher(uncredited)
 
 
 ◎简  介
 
  这是一个失败小人物咸鱼翻生的喜剧故事。乔·赛佛(蒂姆·艾伦饰)是位中年失意男子,一直在明尼苏达州一家制药公司工作,过着浑浑噩噩的生活。他美艳的妻子(姬莉·林奇)对他是横竖看不顺眼,最后也和他离婚了。
 
  乔的生活越来越糟,老板承诺升他职很久,最后却食言了。他的同事马克霸占他的停车位,还当着他早熟的小女儿的面羞辱了他一番。
 
  忍无可忍,乔决心跟马克决斗一场。他去学空手道,还设计了新发型,买了全套新衣服。决斗的消息和新形象令乔成为新闻人物,在公司人气直升,升了职。当乔陶醉于自己的新生活时,娜塔丽却说,她更喜欢爸爸以前的样子。过去对乔颇有好感的女同事梅格也有同感。
 
  决斗日期将近,乔如何向所有人证明:他现在是个大人物。

 

  General #1
    ID : 1 (0x1)
    Complete name : 00000.m2ts
    Format : BDAV
    Format/Info : Blu-ray Video
    File size : 21.3 GiB
    Duration : 1h 38mn
    Overall bit rate mode : Variable
    Overall bit rate : 31.0 Mbps
    Maximum Overall bit rate : 35.5 Mbps
  Video #4113
    ID : 4113 (0x1011)
    Menu ID : 1 (0x1)
    Format : AVC
    Format/Info : Advanced Video Codec
    Format profile : High@L4.1
    Format settings, CABAC : Yes
    Format settings, ReFrames : 2 frames
    Codec ID : 27
    Duration : 1h 38mn
    Bit rate mode : Variable
    Bit rate : 28.5 Mbps
    Width : 1 920 pixels
    Height : 1 080 pixels
    Display aspect ratio : 16:9
    Frame rate : 23.976 fps
    Color space : YUV
    Chroma subsampling : 4:2:0
    Bit depth : 8 bits
    Scan type : Progressive
    Bits/(Pixel*Frame) : 0.573
    Stream size : 19.6 GiB (92%)
  Audio #4352
    ID : 4352 (0x1100)
    Menu ID : 1 (0x1)
    Format : TrueHD
    Muxing mode : Stream extension
    Codec ID : 131
    Duration : 18s 360ms
    Bit rate mode : Variable
    Bit rate : 640 Kbps
    Maximum bit rate : 4 572 Kbps
    Channel(s) : 6 channels
    Channel positions : Front: L C R, Side: L R, LFE
    Sampling rate : 48.0 KHz
    Compression mode : Lossless
    Stream size : 1.40 MiB (0%)
    Language : English
  Audio #4353
    ID : 4353 (0x1101)
    Menu ID : 1 (0x1)
    Format : AC-3
    Format/Info : Audio Coding 3
    Codec ID : 129
    Duration : 1h 38mn
    Bit rate : 640 Kbps
    Channel(s) : 5 channels
    Sampling rate : 48.0 KHz
    Compression mode : Lossy
    Stream size : 450 MiB (2%)
    Language : English
  Text #4608
    ID : 4608 (0x1200)
    Menu ID : 1 (0x1)
    Format : PGS
    Codec ID : 144
    Delay relative to video : 1s 1ms
    Language : Chinese

  评论这张
 
阅读(150)| 评论(0)
推荐 转载

历史上的今天

在LOFTER的更多文章

评论

<#--最新日志,群博日志--> <#--推荐日志--> <#--引用记录--> <#--博主推荐--> <#--随机阅读--> <#--首页推荐--> <#--历史上的今天--> <#--被推荐日志--> <#--上一篇,下一篇--> <#-- 热度 --> <#-- 网易新闻广告 --> <#--右边模块结构--> <#--评论模块结构--> <#--引用模块结构--> <#--博主发起的投票-->
 
 
 
 
 
 
 
 
 
 
 
 
 
 

页脚

网易公司版权所有 ©1997-2017