注册 登录  
 加关注
   显示下一条  |  关闭
温馨提示!由于新浪微博认证机制调整,您的新浪微博帐号绑定已过期,请重新绑定!立即重新绑定新浪微博》  |  关闭

逆风飞翔的鸟

追逐风中散落的默契~

 
 
 

日志

 
 
关于我

曾经迷惑于一份距离 曾经感动于一个传说 …… 在仆仆风中 我伸手 抓住你我的缘分 …… “傻傻”的你 能闻到风中 你我的默契吗?!

网易考拉推荐

【动画】Hotarubi.no.Mori.e.Movie.2011.萤火之森  

2012-05-20 19:12:29|  分类: 动画 |  标签: |举报 |字号 订阅

  下载LOFTER 我的照片书  |
【动画】Hotarubi.no.Mori.e.Movie.2011.萤火之森 - 归鸿 - 归鸿影音

萤火之森 (2011)
Hotarubi no Mori e
类型:剧场版 / 奇幻 / 爱情
地区:日本
集数:1
导演:大森贵弘
编剧:村井さだゆき
原作:绿川幸
配音演员:内山昂辉 / 佐仓绫音
别名:蛍火の杜へ
动画制作:Brain's Base
首播时间:2011年09月17日


简介

    绿川幸的故事情感内敛低调,总会让人能够再三回味,离漫著丝丝的喜悦与忧伤。

    而「萤火之森」秉承一贯绿川幸的风格,故事讲述6岁的女孩竹川萤,在暑假期间回到爷爷的乡下,但却有一天在住满了山神、妖怪的"山神之森"迷了路,但此时却出现了一名带著面具的少年阿金,并答应把萤带出森林。

    原来,阿金是一位半人半妖的少年,若他一触碰到人类便会消失,所以若萤一触碰到阿金,他便会消失。在每一年的夏天,萤也会回到乡下,希望与阿金重聚,年复一年,婷婷玉立的萤与阿金之间也产生了相恋的感觉,可是他们连相互触碰也做不到...

    一段注定是充满悲伤的半人半妖与人类相爱的故事,便在今年搬上大银幕。

    充满诗意美的「萤火之森」剧场版也和「夏目友人帐」的TV动画一様,将由Brain's Base负责制作,并由大森贵弘监督,所以我们一起期待这使人感动的剧场作品吧。

 

  General #1
    ID : 1 (0x1)
    Complete name : 00000.m2ts
    Format : BDAV
    Format/Info : Blu-ray Video
    File size : 13.0 GiB
    Duration : 44mn 59s
    Overall bit rate mode : Variable
    Overall bit rate : 41.4 Mbps
    Maximum Overall bit rate : 35.5 Mbps
  Video #4113
    ID : 4113 (0x1011)
    Menu ID : 1 (0x1)
    Format : AVC
    Format/Info : Advanced Video Codec
    Format profile : High@L4.1
    Format settings, CABAC : Yes
    Format settings, ReFrames : 4 frames
    Codec ID : 27
    Duration : 44mn 59s
    Bit rate mode : Variable
    Bit rate : 38.2 Mbps
    Maximum bit rate : 39.0 Mbps
    Width : 1 920 pixels
    Height : 1 080 pixels
    Display aspect ratio : 16:9
    Frame rate : 23.976 fps
    Color space : YUV
    Chroma subsampling : 4:2:0
    Bit depth : 8 bits
    Scan type : Progressive
    Bits/(Pixel*Frame) : 0.768
    Stream size : 12.0 GiB (92%)
  Audio #4352
    ID : 4352 (0x1100)
    Menu ID : 1 (0x1)
    Format : PCM
    Format settings, Endianness : Big
    Format settings, Sign : Signed
    Muxing mode : Blu-ray
    Codec ID : 128
    Duration : 44mn 59s
    Bit rate mode : Constant
    Bit rate : 1 536 Kbps
    Channel(s) : 2 channels
    Channel positions : Front: L R
    Sampling rate : 48.0 KHz
    Bit depth : 16 bits
    Stream size : 494 MiB (4%)
    Language : Japanese
  Text #4608
    ID : 4608 (0x1200)
    Menu ID : 1 (0x1)
    Format : PGS
    Codec ID : 144
    Language : Chinese
  Text #4609
    ID : 4609 (0x1201)
    Menu ID : 1 (0x1)
    Format : PGS
    Codec ID : 144
    Delay relative to video : 194ms
    Language : Chinese

  评论这张
 
阅读(110)| 评论(0)
推荐 转载

历史上的今天

在LOFTER的更多文章

评论

<#--最新日志,群博日志--> <#--推荐日志--> <#--引用记录--> <#--博主推荐--> <#--随机阅读--> <#--首页推荐--> <#--历史上的今天--> <#--被推荐日志--> <#--上一篇,下一篇--> <#-- 热度 --> <#-- 网易新闻广告 --> <#--右边模块结构--> <#--评论模块结构--> <#--引用模块结构--> <#--博主发起的投票-->
 
 
 
 
 
 
 
 
 
 
 
 
 
 

页脚

网易公司版权所有 ©1997-2017