注册 登录  
 加关注
   显示下一条  |  关闭
温馨提示!由于新浪微博认证机制调整,您的新浪微博帐号绑定已过期,请重新绑定!立即重新绑定新浪微博》  |  关闭

逆风飞翔的鸟

追逐风中散落的默契~

 
 
 

日志

 
 
关于我

曾经迷惑于一份距离 曾经感动于一个传说 …… 在仆仆风中 我伸手 抓住你我的缘分 …… “傻傻”的你 能闻到风中 你我的默契吗?!

网易考拉推荐

【剧情】Hamlet.2009.哈姆雷特  

2012-05-20 22:08:33|  分类: 剧情 |  标签: |举报 |字号 订阅

  下载LOFTER 我的照片书  |
【剧情】Hamlet.2009.哈姆雷特 - 归鸿 - 归鸿影音

◎译  名 哈姆雷特
◎片  名 Hamlet
◎年  代 2009
◎国  家 英国
◎类  别 剧情
◎语  言 英语
◎字  幕 英/简/繁
◎IMDB链接  http://www.86bts.com/title/tt1449175
◎片  长 182 Min
◎导  演 格雷戈里·道兰 Gregory Doran
◎主  演 大卫·田纳特 David Tennant ....Hamlet
       帕特里克·斯图尔特 Patrick Stewart ....Claudius / Ghost
       约翰·伍德温 John Woodvine ....Player King
       Oliver Ford Davies ....Polonius
       Penny Downie ....Gertrude
       Tom Davey ....Guildenstern
       玛丽亚·盖尔 Mariah Gale ....Ophelia
       Peter De Jersey ....Horatio
       Zoe Thorne ....Lady
       Sam Alexander ....Rosencrantz / Second Gravedigger
       Edward Bennett ....Laertes
       David Ajala ....Reynaldo
       Mark Hadfield ....Gravedigger
       Roderick Smith ....Lord / Captain
       Andrea Harris ....Lady
       Ryan Gage ....Osric
       Ricky Champ ....Lucianus
       Jim Hooper ....Priest
       Riann Steele ....Lady
       Ewen Cummins ....Barnardo
       Keith Osborn ....Marcellus
       Samuel Dutton ....Lord
       Robert Curtis ....Francisco
 

◎简  介 
 
  由RSC首席副导演Gregory Doran亲自担任导演,对莎士比亚经典作品《哈姆雷特》重新演绎。全长3小时5分钟。
 
  忧郁的王子,黑暗的宫廷,痛苦的复仇,忧伤的爱情,无常的命运,注定的死亡......
 
  莎士比亚戏剧中最受欢迎的作品,这个世界上最著名的悲剧。莎翁剧及古典戏剧的权威——英国皇家莎士比亚话剧团(RSC)演绎,将古典与现代完美融合尽显深厚功力。
 
  BBC2009年的古典剧压轴之作,横跨舞台与影剧展示电影独特风格;David Tennant演绎哈姆莱特王子,卸任博士的难忘魅力再现戏剧领域。
 
  2010年英剧古典剧开年大戏。
 
  它是一本绝妙的戏剧。
   ——《哈姆莱特》第二幕 第2场
 


  General #1
    ID : 1 (0x1)
    Complete name : 00000.m2ts
    Format : BDAV
    Format/Info : Blu-ray Video
    File size : 35.8 GiB
    Duration : 3h 2mn
    Overall bit rate mode : Variable
    Overall bit rate : 28.0 Mbps
    Maximum Overall bit rate : 35.5 Mbps
  Video #4113
    ID : 4113 (0x1011)
    Menu ID : 1 (0x1)
    Format : AVC
    Format/Info : Advanced Video Codec
    Format profile : High@L4.1
    Format settings, CABAC : Yes
    Format settings, ReFrames : 4 frames
    Format settings, GOP : M=3, N=24
    Codec ID : 27
    Duration : 3h 2mn
    Bit rate mode : Variable
    Bit rate : 24.6 Mbps
    Maximum bit rate : 38.9 Mbps
    Width : 1 920 pixels
    Height : 1 080 pixels
    Display aspect ratio : 16:9
    Frame rate : 29.970 fps
    Standard : NTSC
    Color space : YUV
    Chroma subsampling : 4:2:0
    Bit depth : 8 bits
    Scan type : MBAFF
    Bits/(Pixel*Frame) : 0.396
    Stream size : 31.4 GiB (88%)
    Color primaries : BT.709-5, BT.1361, IEC 61966-2-4, SMPTE RP177
    Transfer characteristics : BT.709-5, BT.1361
    Matrix coefficients : BT.709-5, BT.1361, IEC 61966-2-4 709, SMPTE RP177
  Audio #4352
    ID : 4352 (0x1100)
    Menu ID : 1 (0x1)
    Format : PCM
    Format settings, Endianness : Big
    Format settings, Sign : Signed
    Muxing mode : Blu-ray
    Codec ID : 128
    Duration : 3h 2mn
    Bit rate mode : Constant
    Bit rate : 2 304 Kbps
    Channel(s) : 2 channels
    Channel positions : Front: L R
    Sampling rate : 48.0 KHz
    Bit depth : 24 bits
    Stream size : 2.94 GiB (8%)
    Language : English
  Text #4608
    ID : 4608 (0x1200)
    Menu ID : 1 (0x1)
    Format : PGS
    Codec ID : 144
    Language : Chinese
  Text #4609
    ID : 4609 (0x1201)
    Menu ID : 1 (0x1)
    Format : PGS
    Codec ID : 144
    Language : Chinese
  Text #4610
    ID : 4610 (0x1202)
    Menu ID : 1 (0x1)
    Format : PGS
    Codec ID : 144
    Delay relative to video : 2s 402ms
    Language : English

  评论这张
 
阅读(186)| 评论(0)
推荐 转载

历史上的今天

评论

<#--最新日志,群博日志--> <#--推荐日志--> <#--引用记录--> <#--博主推荐--> <#--随机阅读--> <#--首页推荐--> <#--历史上的今天--> <#--被推荐日志--> <#--上一篇,下一篇--> <#-- 热度 --> <#-- 网易新闻广告 --> <#--右边模块结构--> <#--评论模块结构--> <#--引用模块结构--> <#--博主发起的投票-->
 
 
 
 
 
 
 
 
 
 
 
 
 
 

页脚

网易公司版权所有 ©1997-2017