注册 登录  
 加关注
   显示下一条  |  关闭
温馨提示!由于新浪微博认证机制调整,您的新浪微博帐号绑定已过期,请重新绑定!立即重新绑定新浪微博》  |  关闭

逆风飞翔的鸟

追逐风中散落的默契~

 
 
 

日志

 
 
关于我

曾经迷惑于一份距离 曾经感动于一个传说 …… 在仆仆风中 我伸手 抓住你我的缘分 …… “傻傻”的你 能闻到风中 你我的默契吗?!

网易考拉推荐

【剧情】Anna.Karenina.1997.安娜·卡列尼娜  

2012-05-19 20:50:18|  分类: 剧情 |  标签: |举报 |字号 订阅

  下载LOFTER 我的照片书  |
【剧情】Anna.Karenina.1997.安娜·卡列尼娜 - 归鸿 - 归鸿影音

◎译  名 安娜·卡列尼娜
◎片  名 Anna Karenina
◎年  代 1997
◎国  家 美国/俄罗斯
◎类  别 剧情 爱情
◎语  言 英语
◎IMDB链接  http://www.imdb.com/title/tt0118623/
◎片  长 103 min
◎导  演 伯纳德·罗斯 Bernard Rose
◎主  演 苏菲·玛索 Sophie Marceau .... Anna Karenina
      肖恩·宾 Sean Bean .... Vronsky
      阿尔弗雷德·莫利纳 Alfred Molina .... Levin
      米娅·科什纳 Mia Kirshner .... Kitty
      詹姆斯·福克斯 James Fox .... Karenin
      费奥娜·肖 Fiona Shaw .... Lydia
      丹尼·休斯顿 Danny Huston .... Stiva
      菲利达·劳 Phyllida Law .... Vronskaya
      大卫·斯科菲尔德 David Schofield .... Nikolai
      Saskia Wickham .... Dolly
      Jennifer Hall .... Betsy
      Anna Calder-Marshall .... Princess Schcherbatksy
      Valerie Braddell .... Ambassador's Wife
      Pyotr Shelokhonov .... Kapitonich (as Pyotr Sholokhov)
      Niall Buggy .... Doctor
      Anthony Calf .... Serpuliovskoy
      维隆·多布切夫 Vernon Dobtcheff .... Pestov


◎简  介

  十九世纪俄罗斯的上流社会里,高层首长卡列宁之妻安娜(苏菲玛索饰)艳冠群芳,在火车上她邂逅了风流倜傥的伯爵渥伦斯基(西恩·宾饰)。渥伦斯基的热情唤醒了安娜沉睡已久的爱情,二人产生了真爱,在当时社会强大的舆论压力下,不顾一切地私奔,他们的爱情悲剧就此展开。

    虽然安娜勇敢地告诉自己的丈夫一切实情,希望能离婚,但看重社会地位的卡列宁(詹姆斯福克斯饰),难以忍受夺妻的耻辱,以安娜最心爱的儿子做威胁,拒绝和安娜离婚并逼她放弃儿子。

  此刻,安娜已离家与渥伦斯基同居,怀了他的孩子,却不幸流产,得了后遗症,又对酒与药物有了依赖性,经过重重困难波折后,安娜的精神压力变得非常大。后来,渥伦斯基承受不了社会压力开始对她表示冷淡,安娜付出了失去家庭、儿子和社会地位的高昂代价,而现在所谓真挚自由的爱情也开始要被遗弃,她内心无法获得满足和平衡。

  最后安娜身着一袭黑天鹅绒长裙,在火车站的铁轨前,让呼啸而过的火车结束了自己无望的爱情和生命,这段为道德和世间所不容的婚外情最后的结果由安娜独立承担,留下了无限感伤。 

 
  剧中的苏菲·玛索:

  《安娜·卡列尼娜》作为俄国大文豪列夫·托尔斯泰的传世名作,曾五度被改编成电影。葛丽泰·嘉宝和费雯丽都曾经出演过莎翁笔下这位悲剧女主角的形象,尤其是葛丽泰·嘉宝的安娜形象更深刻留在人们记忆中,这位好莱坞银幕“女神”创造的安娜形象成为不可逾越的世纪神话。

  而这一次,苏菲·玛索的表演诚然出色,然后和嘉宝相比仍相形见绌。可能外形上就比较吃亏,具有东方特质的苏菲看起来实在不像一个俄国人。其次,剧本本身的一些局限,减轻了苏菲塑造的安娜的悲剧性,着力在安娜的情欲上着墨,这样一来,也限制了苏菲挖掘角色的深度。

  当然,人都有失手的时候,更何况,众多客观原因之下,苏菲的表演仍具可观性,苏菲在片中的表演,可谓不得不失。

 

  General #1
    ID : 1 (0x1)
    Complete name : 00000.m2ts
    Format : BDAV
    Format/Info : Blu-ray Video
    File size : 15.0 GiB
    Duration : 1h 43mn
    Overall bit rate mode : Variable
    Overall bit rate : 20.7 Mbps
    Maximum Overall bit rate : 35.5 Mbps
  Video #4113
    ID : 4113 (0x1011)
    Menu ID : 1 (0x1)
    Format : MPEG Video
    Format version : Version 2
    Format profile : Main@High
    Format settings, BVOP : Yes
    Format settings, Matrix : Custom
    Format settings, GOP : M=3, N=15
    Codec ID : 2
    Duration : 1h 43mn
    Bit rate mode : Variable
    Bit rate : 19.5 Mbps
    Maximum bit rate : 26.0 Mbps
    Width : 1 920 pixels
    Height : 1 080 pixels
    Display aspect ratio : 16:9
    Frame rate : 25.000 fps
    Standard : PAL
    Color space : YUV
    Chroma subsampling : 4:2:0
    Bit depth : 8 bits
    Scan type : Interlaced
    Scan order : Top Field First
    Compression mode : Lossy
    Bits/(Pixel*Frame) : 0.375
    Stream size : 14.1 GiB (94%)
  Audio #4352
    ID : 4352 (0x1100)
    Menu ID : 1 (0x1)
    Format : AC-3
    Format/Info : Audio Coding 3
    Mode extension : CM (complete main)
    Format settings, Endianness : Big
    Codec ID : 129
    Duration : 9s 216ms
    Bit rate mode : Constant
    Bit rate : 448 Kbps
    Channel(s) : 6 channels
    Channel positions : Front: L C R, Side: L R, LFE
    Sampling rate : 48.0 KHz
    Bit depth : 16 bits
    Compression mode : Lossy
    Stream size : 504 KiB (0%)
    Language : English
  Text #4608
    ID : 4608 (0x1200)
    Menu ID : 1 (0x1)
    Format : PGS
    Codec ID : 144
    Delay relative to video : 11s 0ms
    Language : Chinese

  评论这张
 
阅读(149)| 评论(0)
推荐 转载

历史上的今天

在LOFTER的更多文章

评论

<#--最新日志,群博日志--> <#--推荐日志--> <#--引用记录--> <#--博主推荐--> <#--随机阅读--> <#--首页推荐--> <#--历史上的今天--> <#--被推荐日志--> <#--上一篇,下一篇--> <#-- 热度 --> <#-- 网易新闻广告 --> <#--右边模块结构--> <#--评论模块结构--> <#--引用模块结构--> <#--博主发起的投票-->
 
 
 
 
 
 
 
 
 
 
 
 
 
 

页脚

网易公司版权所有 ©1997-2017