注册 登录  
 加关注
   显示下一条  |  关闭
温馨提示!由于新浪微博认证机制调整,您的新浪微博帐号绑定已过期,请重新绑定!立即重新绑定新浪微博》  |  关闭

逆风飞翔的鸟

追逐风中散落的默契~

 
 
 

日志

 
 
关于我

曾经迷惑于一份距离 曾经感动于一个传说 …… 在仆仆风中 我伸手 抓住你我的缘分 …… “傻傻”的你 能闻到风中 你我的默契吗?!

网易考拉推荐

【剧情】The.Jane.Austen.Book.Club.2007.奥斯汀书会  

2012-05-19 19:40:21|  分类: 剧情 |  标签: |举报 |字号 订阅

  下载LOFTER 我的照片书  |
【剧情】The.Jane.Austen.Book.Club.2007.奥斯汀书会 - 归鸿 - 归鸿影音

【影片原名】The Jane Austen Book Club
【中文译名】奥斯汀书会/我们都是奥斯汀迷
【出品公司】Mockingbird Pictures
【出品年代】2007 年
【上映日期】2007年9月21日 美国
【影片级别】美国: PG-13
【IMDB链接】http://imdb.com/title/tt0866437/
【国  家】美国
【类  别】剧情
【导  演】罗宾·史威考德 Robin Swicord
【主  演】玛丽娅·贝罗/玛莉亚·比露 Maria Bello  ....  Jocelyn
      麦琪·格雷斯 Maggie Grace  ....  Allegra
      埃米·布伦尼曼 Amy Brenneman  ....  Sylvia
      艾米莉·布朗特 Emily Blunt  ....  Prudie
      凯文·席格斯 Kevin Zegers  ....
      休·丹西 Hugh Dancy  ....  Grigg
      凯茜·贝克 Kathy Baker  ....  Bernadette
      马克·布鲁卡斯 Marc Blucas  ....  Dean
      南希·特拉维斯 Nancy Travis  ....  Cat
      杰米·史密兹 Jimmy Smits  ....  Daniel
      Gwendoline Yeo  ....  Dr. Samantha Yep


【内容简介】

    有些事情即使经历了两个世纪的变更,也是永远都不会发生改变的……我们仍然全神贯注于婚姻、友情和爱情的纠缠、事业、社交礼貌的复杂环境中,直到精疲力竭仍然乐此不疲。也许你觉得简·奥斯汀在任何一本小说中创造的故事情节都不可能与现代生活有所交集,然而这里却有六个人找到了两者之间的相似之处,他们组成了“奥斯汀书会”,通过讨论奥斯汀那绝妙的描述,在自己的生活轨道中重新找回了回应、预言、警告和智慧。

  伯纳黛特是“奥斯汀书会”的发起人,而她的生活本身就是自相矛盾的,否则这个令人温暖、有智慧、现实且无拘无束的人,怎么会结过六次婚?现在,她已经50多岁了,却仍然是单身。大多时候,伯纳黛特都是那种最棒的朋友人选,因为她会静静聆听你的不幸,然后成为你最坚实的后盾。相对于城市中喧闹的生活,你总能从伯纳黛特身上找到平静……将朋友们召集到一起组成“永远的奥斯汀”读书俱乐部,就是伯纳黛特的主意,因为再没有作家比简·奥斯汀更会治疗这个世界对人们的折磨了。

  与伯纳黛特甘愿在婚姻上冒险完全相反,她的朋友乔斯琳似乎天生与“浪漫”这两个字无缘,她甚至宣称自己从未恋爱过--即使有,也是和她的那只罗得西亚脊背犬普赖迪。它是她最忠诚的伴侣,血统高贵,所以不难想象,当普赖迪死后,乔斯琳是如何沉浸在悲伤之中不能自拔的……朋友们一致认为应该找点什么事情让乔斯琳分分神,好从痛失爱犬的不幸中尽快走出来,但乔斯琳可没有他们想象得那般脆弱。

  第三个加入到书会中的是与乔斯琳一起长大的好友西尔维娅,她们甚至在高中的时候和同一个男孩约会过……西尔维娅和丹尼尔结婚已经超过25年了,养育了三个孩子,然而一天,丹尼尔却委婉地告诉西尔维娅自己爱上了别的女人。她觉得自己要崩溃了,因为她完全没有意识到自己的婚姻竟然出现了如此大的问题。至于丹尼尔,似乎宁愿为了一次新的恋情,而抛弃时间所累积出来的那种亲情大于爱情的夫妻关系。

  西尔维娅和丹尼尔的女儿阿莱格拉,正处在20来岁的花样年纪,她之所以加入到书友会中,只是为了陪妈妈,帮助西尔维娅从失去婚姻的无所适从中重新站起来。漂亮可爱、性格直爽且非常随和的阿莱格拉,对待任何事情似乎都在追求激情和刺激。当她跟随着读书会进行了几次深刻的讨论后,终于能够以一种平静的心态公布她的性取向了--她是一名同性恋。不过,她对妈妈隐瞒了自己还是一名极限体育的爱好者的事实,最喜欢跳伞、划皮艇或攀岩。

  普鲁迪是一所高中的法语老师,不过她本人从没到过法国。普鲁迪最近刚刚和迪安结婚,可迪安却因为工作上的事而取消了计划已久的巴黎之旅……这让普鲁迪备感挫败,再加上迪安那种“普通的美国人”的个性与她的精明、智慧和丰富的情感有着显而易见的错位,这一切让普鲁迪变得异常脆弱,就犯起了糊涂,竟然对一名轻浮的高年级学生特雷产生了迷恋。伯纳黛特是偶然认识普鲁迪的,但她几乎马上就洞悉了普鲁迪面对的困难,将她保护在了自己的羽翼之下,并邀请她加入了书友会。

  书友会的最后一位成员,也是惟一的男性--格瑞格,刚刚步入三十大关的他和乔斯琳在一家酒店的电梯里相逢:她与狗友们聚会,他则和科幻迷们座谈……乔斯琳有意撮合格瑞格和西尔维娅,却没发现,真正引起格瑞格的兴趣的,其实是她。

  每一个月,书友会的六位成员都会聚在一起讨论一本简·奥斯汀的小说,可能是在乔斯琳破旧的小农场里,或者是西尔维娅位于城里舒适的家中,又或者跑到格瑞格刚刚收拾好的郊区村屋……当然,他们偶尔会选择在星巴克喝咖啡,也可能干脆去酒店开个房间,甚至为了表示对奥斯汀设计的那些海边情节的敬意,而特别去海滩边散步边讨论。没错,连接了这六个人的生活的那条线,就是简·奥斯汀。

 

  General #1
    ID : 1 (0x1)
    Complete name : 00000.m2ts
    Format : BDAV
    Format/Info : Blu-ray Video
    File size : 22.7 GiB
    Duration : 1h 45mn
    Overall bit rate mode : Variable
    Overall bit rate : 30.7 Mbps
    Maximum Overall bit rate : 35.5 Mbps
  Video #4113
    ID : 4113 (0x1011)
    Menu ID : 1 (0x1)
    Format : AVC
    Format/Info : Advanced Video Codec
    Format profile : High@L4.1
    Format settings, CABAC : Yes
    Format settings, ReFrames : 2 frames
    Format settings, GOP : M=1, N=10
    Codec ID : 27
    Duration : 1h 45mn
    Bit rate mode : Variable
    Bit rate : 28.8 Mbps
    Width : 1 920 pixels
    Height : 1 080 pixels
    Display aspect ratio : 16:9
    Frame rate : 23.976 fps
    Color space : YUV
    Chroma subsampling : 4:2:0
    Bit depth : 8 bits
    Scan type : Progressive
    Bits/(Pixel*Frame) : 0.580
    Stream size : 21.3 GiB (94%)
  Audio #4352
    ID : 4352 (0x1100)
    Menu ID : 1 (0x1)
    Format : TrueHD
    Muxing mode : Stream extension
    Codec ID : 131
    Duration : 11s 634ms
    Bit rate mode : Variable
    Bit rate : 640 Kbps
    Maximum bit rate : 2 475 Kbps
    Channel(s) : 6 channels
    Channel positions : Front: L C R, Side: L R, LFE
    Sampling rate : 48.0 KHz
    Compression mode : Lossless
    Stream size : 909 KiB (0%)
    Language : English
  Text #4608
    ID : 4608 (0x1200)
    Menu ID : 1 (0x1)
    Format : PGS
    Codec ID : 144
    Delay relative to video : 10s 219ms
    Language : Chinese
  Text #4609
    ID : 4609 (0x1201)
    Menu ID : 1 (0x1)
    Format : PGS
    Codec ID : 144
    Language : Chinese
  Text #4610
    ID : 4610 (0x1202)
    Menu ID : 1 (0x1)
    Format : PGS
    Codec ID : 144
    Language : English
  Text #4611
    ID : 4611 (0x1203)
    Menu ID : 1 (0x1)
    Format : PGS
    Codec ID : 144
    Delay relative to video : 11s 845ms
    Language : English
  Text #4612
    ID : 4612 (0x1204)
    Menu ID : 1 (0x1)
    Format : PGS
    Codec ID : 144
    Delay relative to video : 10s 219ms
    Language : French
  Text #4613
    ID : 4613 (0x1205)
    Menu ID : 1 (0x1)
    Format : PGS
    Codec ID : 144
    Delay relative to video : 10s 219ms
    Language : Spanish
  Text #4614
    ID : 4614 (0x1206)
    Menu ID : 1 (0x1)
    Format : PGS
    Codec ID : 144
    Delay relative to video : 10s 219ms
    Language : Portuguese
  Text #4615
    ID : 4615 (0x1207)
    Menu ID : 1 (0x1)
    Format : PGS
    Codec ID : 144
    Delay relative to video : 10s 219ms
    Language : Korean
  Text #4616
    ID : 4616 (0x1208)
    Menu ID : 1 (0x1)
    Format : PGS
    Codec ID : 144
    Delay relative to video : 10s 219ms
    Language : Thai
  Text #4617
    ID : 4617 (0x1209)
    Menu ID : 1 (0x1)
    Format : PGS
    Codec ID : 144
    Language : Spanish
  Text #4618
    ID : 4618 (0x120A)
    Menu ID : 1 (0x1)
    Format : PGS
    Codec ID : 144
    Language : Portuguese
  Text #4619
    ID : 4619 (0x120B)
    Menu ID : 1 (0x1)
    Format : PGS
    Codec ID : 144
    Language : Korean
  Text #4620
    ID : 4620 (0x120C)
    Menu ID : 1 (0x1)
    Format : PGS
    Codec ID : 144
    Language : Thai

  评论这张
 
阅读(110)| 评论(0)
推荐 转载

历史上的今天

在LOFTER的更多文章

评论

<#--最新日志,群博日志--> <#--推荐日志--> <#--引用记录--> <#--博主推荐--> <#--随机阅读--> <#--首页推荐--> <#--历史上的今天--> <#--被推荐日志--> <#--上一篇,下一篇--> <#-- 热度 --> <#-- 网易新闻广告 --> <#--右边模块结构--> <#--评论模块结构--> <#--引用模块结构--> <#--博主发起的投票-->
 
 
 
 
 
 
 
 
 
 
 
 
 
 

页脚

网易公司版权所有 ©1997-2017