注册 登录  
 加关注
   显示下一条  |  关闭
温馨提示!由于新浪微博认证机制调整,您的新浪微博帐号绑定已过期,请重新绑定!立即重新绑定新浪微博》  |  关闭

逆风飞翔的鸟

追逐风中散落的默契~

 
 
 

日志

 
 
关于我

曾经迷惑于一份距离 曾经感动于一个传说 …… 在仆仆风中 我伸手 抓住你我的缘分 …… “傻傻”的你 能闻到风中 你我的默契吗?!

网易考拉推荐

【幻想】Vicky.and.the.Treasure.of.the.Gods.2011.维基和上帝的宝藏  

2012-04-04 09:57:19|  分类: 幻想 |  标签: |举报 |字号 订阅

  下载LOFTER 我的照片书  |
【幻想】Vicky.and.the.Treasure.of.the.Gods.2011.维基和上帝的宝藏 - 归鸿 - 归鸿影音

◎译  名 维京小海盗2/维京小英雄/维基和上帝的宝藏
◎片  名 Vicky and the Treasure of the Gods 
◎年  代 2011
◎国  家 德国 
◎类  别 动作/家庭/冒险/喜剧
◎语  言 德语
◎IMDB链接  http://www.imdb.com/title/tt1584941/
◎片  长 96 mins 17 seconds
◎导  演 克里斯蒂安·迪特 Christian Ditter
◎主  演 Jonas H?mmerle  ....Wickie
       Andreas Don Duering  ....Pirat
       Günther Kaufmann  ....Der schreckliche Sven
       Olaf Kr?tke  ....Urobe
       Jadea Mercedes Diaz  ....Ylvi
       Susanne Schnapp  ....Ylva
       Nicolas Romm  ....Tjure
       Christian Koch  ....Snorre
       Mike Maas  ....Gorm
       J?rg Moukkadam  ....Faxe
       Patrick Reichel  ....Ulme
       Hoang Dang-Vu
       Paul Hahn
       沃尔德玛·库布斯 Waldemar Kobus  ....Halvar
 
       
◎简  介 
 
  该系列影片改编自德国70年代的著名电视动画片,故事是《驯龙记》的真人没有龙版,维京首领的四肢孱弱但头脑强大的小儿子为证明自己,做出了一番令人刮目相看的事迹,此番他带领着族人走上了海上寻宝的探险历程。
 
◎幕后制作
 
  德国本土片最受欢迎的类型除了爱情喜剧片之外便是儿童冒险题材了。近年来《鳄鱼队》、《疯狂足球队》等续集电影都长盛不衰,而作为2009年卖座影片《维京小海盗》的续集,备受期待的《维京小海盗2》也顺利地登上了德国本周票房榜的冠军,首周动员到19万人次观众,力压上周冠军《男人的心2》以及新上映的《朋友也上床》。如果忽略掉纪录片《皮娜》和英文对白的《三个火枪手》的话,《维京小英雄2》是德国首部真正意义上的3D商业片。
 
  影片主要小演员都是通过选秀节目海选而来,纯真萌人是最大的卖点,续集的故事虽然没有首部曲那么精彩,但有3D效果的加盟势必也将创下不俗的票房。当然首部曲当年动员600万人次的辉煌不可能重现。

 

  General #1
    ID : 1 (0x1)
    Complete name : 00000.m2ts
    Format : BDAV
    Format/Info : Blu-ray Video
    File size : 20.2 GiB
    Duration : 1h 36mn
    Overall bit rate mode : Variable
    Overall bit rate : 30.1 Mbps
    Maximum Overall bit rate : 35.5 Mbps
  Video #4113
    ID : 4113 (0x1011)
    Menu ID : 1 (0x1)
    Format : AVC
    Format/Info : Advanced Video Codec
    Format profile : High@L4.1
    Format settings, CABAC : Yes
    Format settings, ReFrames : 4 frames
    Codec ID : 27
    Duration : 1h 36mn
    Bit rate mode : Variable
    Bit rate : 26.8 Mbps
    Maximum bit rate : 36.0 Mbps
    Width : 1 920 pixels
    Height : 1 080 pixels
    Display aspect ratio : 16:9
    Frame rate : 23.976 fps
    Standard : NTSC
    Color space : YUV
    Chroma subsampling : 4:2:0
    Bit depth : 8 bits
    Scan type : Progressive
    Bits/(Pixel*Frame) : 0.539
    Stream size : 18.0 GiB (89%)
    Color primaries : BT.709-5, BT.1361, IEC 61966-2-4, SMPTE RP177
    Transfer characteristics : BT.709-5, BT.1361
    Matrix coefficients : BT.709-5, BT.1361, IEC 61966-2-4 709, SMPTE RP177
  Audio #4352
    ID : 4352 (0x1100)
    Menu ID : 1 (0x1)
    Format : DTS
    Format/Info : Digital Theater Systems
    Format profile : HRA / Core
    Muxing mode : Stream extension
    Codec ID : 133
    Duration : 1h 36mn
    Bit rate mode : Constant
    Bit rate : 2 047 Kbps / 1 510 Kbps
    Channel(s) : 6 channels
    Channel positions : Front: L C R, Side: L R, LFE
    Sampling rate : 48.0 KHz
    Bit depth : 24 bits
    Compression mode : Lossy
    Stream size : 1.38 GiB (7%)
    Language : German
  Text #4608
    ID : 4608 (0x1200)
    Menu ID : 1 (0x1)
    Format : PGS
    Codec ID : 144
    Language : Chinese
  Text #4609
    ID : 4609 (0x1201)
    Menu ID : 1 (0x1)
    Format : PGS
    Codec ID : 144
    Language : Chinese
  Text #4610
    ID : 4610 (0x1202)
    Menu ID : 1 (0x1)
    Format : PGS
    Codec ID : 144
    Language : German

  评论这张
 
阅读(198)| 评论(0)
推荐 转载

历史上的今天

在LOFTER的更多文章

评论

<#--最新日志,群博日志--> <#--推荐日志--> <#--引用记录--> <#--博主推荐--> <#--随机阅读--> <#--首页推荐--> <#--历史上的今天--> <#--被推荐日志--> <#--上一篇,下一篇--> <#-- 热度 --> <#-- 网易新闻广告 --> <#--右边模块结构--> <#--评论模块结构--> <#--引用模块结构--> <#--博主发起的投票-->
 
 
 
 
 
 
 
 
 
 
 
 
 
 

页脚

网易公司版权所有 ©1997-2017