注册 登录  
 加关注
   显示下一条  |  关闭
温馨提示!由于新浪微博认证机制调整,您的新浪微博帐号绑定已过期,请重新绑定!立即重新绑定新浪微博》  |  关闭

逆风飞翔的鸟

追逐风中散落的默契~

 
 
 

日志

 
 
关于我

曾经迷惑于一份距离 曾经感动于一个传说 …… 在仆仆风中 我伸手 抓住你我的缘分 …… “傻傻”的你 能闻到风中 你我的默契吗?!

网易考拉推荐

【剧情】Sister.Act.2.Back.in.the.Habit.修女也疯狂2  

2012-04-20 09:21:53|  分类: 剧情 |  标签: |举报 |字号 订阅

  下载LOFTER 我的照片书  |
【剧情】Sister.Act.2.Back.in.the.Habit.修女也疯狂2 - 归鸿 - 归鸿影音

◎译  名 修女也疯狂 2
◎片  名 Sister Act 2: Back in the Habit
◎年  代 1993
◎国  家 美国
◎类  别 犯罪/ 喜剧/ 音乐
◎语  言 英语
◎IMDB链接  http://www.imdb.com/title/tt0108147/
◎片  长 107 mins
◎导  演 比尔·杜克 Bill Duke
◎主  演 乌比·戈德堡 Whoopi Goldberg
            凯茜·纳基麦 Kathy Najimy
            巴纳德·休斯 Barnard Hughes
            詹姆斯·柯本 James Coburn
            迈克尔·杰特 Michael Jeter
 

◎剧情简介
 
  在这一集里,狄乐丝正成为拉斯韦加斯的知名歌手,而在上一集里与她同患难共欢乐的修女们也被调至一个社区学校服务。但是,那里的青少年实在不好对付,与拘于传统的修女们简直是水火不容,没精神时,这些学生就打瞌睡,有了精神他们又该捣乱破坏了。没有办法,修女们只好请狄乐丝再度出山。一开始,那些冥顽不灵的学生拿她不当回事,照样想尽各种办法整她,出她的洋相。但是,很快他们就领教了狄乐丝厉害,因为他们发现,凡是射向狄乐丝的箭最终都向自己身上射来。这一下,连最顽皮的孩子也服了。正当孩子们的乐队参加一次大赛时,狄乐丝身份又成了问题……
 
  德洛里斯现在已经是拉斯维加斯的一位红歌手。这时候,修女们前来请求她的帮助。原来,她们被调到一所社区教会学校去服务,孩子们的叛逆行为与教会式的古板教育之间产生了水火难容的矛盾。修道院院长希望德洛里斯能够来帮助她们。热心的德洛里斯答应了她们。
 
  学校里的孩子们很难管教。他们恣意嬉闹,毫无忌惮,德洛里斯也免不了受到他们的捉弄,但她接手音乐班后,还是克服了不少的困难,使学生们逐渐开始理解和喜欢上她了。
 
  就在这时,德洛里斯无意间发现,学校因为财政困难而面临着被关闭的命运。热情洋溢的德洛里斯开始使出了浑身解数。她领导孩子们成立了合唱团,并且热情地教导和训练他们,以参加州里的教会学校合唱比赛,取得荣誉使学校摆脱困境。
 
  孩子们在学校的登台演出大获成功。他们终于来到了州里准备参加比赛。其他各个学校精彩的表演使孩子们大为沮丧,在德洛里斯的鼓励下,大家又重新恢复了信心。但就在这个关键时刻,德洛里斯的真正身份暴露了,多亏修道士们的大力帮忙,才使合唱团免遭失去资格的恶运。
 
  孩子们的感人表现获得了一等奖。学校渡过了重大的生存危机。德洛里斯的热心帮助终于保住了修女和孩子们所热爱的学校。
 
  德洛里斯现在已经是拉斯维加斯的一位红歌手。这时候,修女们前来请求她的帮助。原来,她们被调到一所社区教会学校去服务,孩子们的叛逆行为与教会式的古板教育之间产生了水火难容的矛盾。修道院院长希望德洛里斯能够来帮助她们。热心的德洛里斯答应了她们。
 
  学校里的孩子们很难管教。他们恣意嬉闹,毫无忌惮,德洛里斯也免不了受到他们的捉弄,但她接手音乐班后,还是克服了不少的困难,使学生们逐渐开始理解和喜欢上她了……
 

  General #1
    ID : 1 (0x1)
    Complete name : 00000.m2ts
    Format : BDAV
    Format/Info : Blu-ray Video
    File size : 18.9 GiB
    Duration : 1h 47mn
    Overall bit rate mode : Variable
    Overall bit rate : 25.2 Mbps
    Maximum Overall bit rate : 35.5 Mbps
  Video #4113
    ID : 4113 (0x1011)
    Menu ID : 1 (0x1)
    Format : AVC
    Format/Info : Advanced Video Codec
    Format profile : High@L4.1
    Format settings, CABAC : Yes
    Format settings, ReFrames : 4 frames
    Format settings, GOP : M=3, N=24
    Codec ID : 27
    Duration : 1h 47mn
    Bit rate mode : Variable
    Bit rate : 23.4 Mbps
    Maximum bit rate : 35.0 Mbps
    Width : 1 920 pixels
    Height : 1 080 pixels
    Display aspect ratio : 16:9
    Frame rate : 23.976 fps
    Standard : NTSC
    Color space : YUV
    Chroma subsampling : 4:2:0
    Bit depth : 8 bits
    Scan type : Progressive
    Bits/(Pixel*Frame) : 0.470
    Stream size : 17.5 GiB (93%)
    Color primaries : BT.709-5, BT.1361, IEC 61966-2-4, SMPTE RP177
    Transfer characteristics : BT.709-5, BT.1361
    Matrix coefficients : BT.709-5, BT.1361, IEC 61966-2-4 709, SMPTE RP177
  Audio #4352
    ID : 4352 (0x1100)
    Menu ID : 1 (0x1)
    Format : AC-3
    Format/Info : Audio Coding 3
    Mode extension : CM (complete main)
    Codec ID : 129
    Duration : 1h 47mn
    Bit rate mode : Constant
    Bit rate : 640 Kbps
    Channel(s) : 6 channels
    Channel positions : Front: L C R, Side: L R, LFE
    Sampling rate : 48.0 KHz
    Bit depth : 16 bits
    Compression mode : Lossy
    Stream size : 491 MiB (3%)
    Language : English
  Audio #4353
    ID : 4353 (0x1101)
    Menu ID : 1 (0x1)
    Format : AC-3
    Format/Info : Audio Coding 3
    Format profile : Dolby Digital
    Mode extension : CM (complete main)
    Codec ID : 129
    Duration : 1h 47mn
    Bit rate mode : Constant
    Bit rate : 192 Kbps
    Channel(s) : 2 channels
    Channel positions : Front: L R
    Sampling rate : 48.0 KHz
    Bit depth : 16 bits
    Compression mode : Lossy
    Stream size : 147 MiB (1%)
    Language : Chinese
  Text #4608
    ID : 4608 (0x1200)
    Menu ID : 1 (0x1)
    Format : PGS
    Codec ID : 144
    Language : Chinese
  Text #4609
    ID : 4609 (0x1201)
    Menu ID : 1 (0x1)
    Format : PGS
    Codec ID : 144
    Language : English
  Text #4610
    ID : 4610 (0x1202)
    Menu ID : 1 (0x1)
    Format : PGS
    Codec ID : 144
    Language : Portuguese
  Text #4611
    ID : 4611 (0x1203)
    Menu ID : 1 (0x1)
    Format : PGS
    Codec ID : 144
    Language : German
  Text #4612
    ID : 4612 (0x1204)
    Menu ID : 1 (0x1)
    Format : PGS
    Codec ID : 144
    Delay relative to video : 11s 414ms
    Language : Russian
  Text #4613
    ID : 4613 (0x1205)
    Menu ID : 1 (0x1)
    Format : PGS
    Codec ID : 144
    Language : Spanish
  Text #4614
    ID : 4614 (0x1206)
    Menu ID : 1 (0x1)
    Format : PGS
    Codec ID : 144
    Language : French
  Text #4615
    ID : 4615 (0x1207)
    Menu ID : 1 (0x1)
    Format : PGS
    Codec ID : 144
    Language : Polish

  评论这张
 
阅读(116)| 评论(0)
推荐 转载

历史上的今天

在LOFTER的更多文章

评论

<#--最新日志,群博日志--> <#--推荐日志--> <#--引用记录--> <#--博主推荐--> <#--随机阅读--> <#--首页推荐--> <#--历史上的今天--> <#--被推荐日志--> <#--上一篇,下一篇--> <#-- 热度 --> <#-- 网易新闻广告 --> <#--右边模块结构--> <#--评论模块结构--> <#--引用模块结构--> <#--博主发起的投票-->
 
 
 
 
 
 
 
 
 
 
 
 
 
 

页脚

网易公司版权所有 ©1997-2017