注册 登录  
 加关注
   显示下一条  |  关闭
温馨提示!由于新浪微博认证机制调整,您的新浪微博帐号绑定已过期,请重新绑定!立即重新绑定新浪微博》  |  关闭

逆风飞翔的鸟

追逐风中散落的默契~

 
 
 

日志

 
 
关于我

曾经迷惑于一份距离 曾经感动于一个传说 …… 在仆仆风中 我伸手 抓住你我的缘分 …… “傻傻”的你 能闻到风中 你我的默契吗?!

网易考拉推荐

【剧情】Sister.Act.1.1992.修女也疯狂1  

2012-04-20 09:19:23|  分类: 剧情 |  标签: |举报 |字号 订阅

  下载LOFTER 我的照片书  |
【剧情】Sister.Act.1.1992.修女也疯狂1 - 归鸿 - 归鸿影音

◎译  名 修女也疯狂
◎片  名 Sister Act
◎年  代 1992
◎国  家 美国
◎类  别 犯罪/ 喜剧/ 音乐
◎语  言 英语
◎IMDB链接  http://www.imdb.com/title/tt0105417/
◎片  长 100 mins
◎导  演 埃米利·阿朵里诺   Emile Ardolino 
◎主  演 乌比·戈德堡 Whoopi Goldberg  ....
            玛吉·史密斯 Maggie Smith
            凯茜·纳基麦 Kathy Najimy
            哈威·凯特尔 Harvey Keitel
            比尔·努恩 Bill Nunn 
 
 
◎剧情简介

    夜总会女二流歌手迪劳丽丝(胡比?戈德堡)因意外目睹一桩谋杀被黑帮头目追杀,为逃脱杀手追击,她求助于警方,警方为保护她这个现场证人,安排她躲进世界上最安全的地方——一所修女院。
 
  修女院沉寂冷清的生活令一向好动的迪劳丽丝难以忍受,遂晚上趁人不备跑出去唱歌跳舞,院长(玛吉·史密斯)担心她出事,将她安排到唱诗班里,她又嫌唱诗班异常糟糕,决定动手改造,于是在做弥撒时,唱诗班高唱起流行歌曲,不过歌词改成了赞美天主,谁想,此举竟受到教友的热烈欢迎,并引来教宗的专程前来欣赏。如此好玩的新闻,电视台岂肯放过?可是电视上一曝光,迪劳丽丝也被宣告要再次逃命……
 


  General #1
    ID : 1 (0x1)
    Complete name : 00000.m2ts
    Format : BDAV
    Format/Info : Blu-ray Video
    File size : 17.7 GiB
    Duration : 1h 40mn
    Overall bit rate mode : Variable
    Overall bit rate : 25.2 Mbps
    Maximum Overall bit rate : 35.5 Mbps
  Video #4113
    ID : 4113 (0x1011)
    Menu ID : 1 (0x1)
    Format : AVC
    Format/Info : Advanced Video Codec
    Format profile : High@L4.1
    Format settings, CABAC : Yes
    Format settings, ReFrames : 4 frames
    Format settings, GOP : M=3, N=24
    Codec ID : 27
    Duration : 1h 40mn
    Bit rate mode : Variable
    Bit rate : 23.4 Mbps
    Maximum bit rate : 35.0 Mbps
    Width : 1 920 pixels
    Height : 1 080 pixels
    Display aspect ratio : 16:9
    Frame rate : 23.976 fps
    Standard : NTSC
    Color space : YUV
    Chroma subsampling : 4:2:0
    Bit depth : 8 bits
    Scan type : Progressive
    Bits/(Pixel*Frame) : 0.470
    Stream size : 16.4 GiB (92%)
    Color primaries : BT.709-5, BT.1361, IEC 61966-2-4, SMPTE RP177
    Transfer characteristics : BT.709-5, BT.1361
    Matrix coefficients : BT.709-5, BT.1361, IEC 61966-2-4 709, SMPTE RP177
  Audio #4352
    ID : 4352 (0x1100)
    Menu ID : 1 (0x1)
    Format : AC-3
    Format/Info : Audio Coding 3
    Mode extension : CM (complete main)
    Codec ID : 129
    Duration : 1h 40mn
    Bit rate mode : Constant
    Bit rate : 640 Kbps
    Channel(s) : 6 channels
    Channel positions : Front: L C R, Side: L R, LFE
    Sampling rate : 48.0 KHz
    Bit depth : 16 bits
    Compression mode : Lossy
    Stream size : 459 MiB (3%)
    Language : English
  Audio #4353
    ID : 4353 (0x1101)
    Menu ID : 1 (0x1)
    Format : AC-3
    Format/Info : Audio Coding 3
    Mode extension : CM (complete main)
    Codec ID : 129
    Duration : 1h 40mn
    Bit rate mode : Constant
    Bit rate : 192 Kbps
    Channel(s) : 2 channels
    Channel positions : Front: L R
    Sampling rate : 48.0 KHz
    Bit depth : 16 bits
    Compression mode : Lossy
    Stream size : 138 MiB (1%)
    Language : Chinese
  Text #4608
    ID : 4608 (0x1200)
    Menu ID : 1 (0x1)
    Format : PGS
    Codec ID : 144
    Language : Chinese
  Text #4609
    ID : 4609 (0x1201)
    Menu ID : 1 (0x1)
    Format : PGS
    Codec ID : 144
    Language : English
  Text #4610
    ID : 4610 (0x1202)
    Menu ID : 1 (0x1)
    Format : PGS
    Codec ID : 144
    Delay relative to video : 12s 874ms
    Language : French
  Text #4611
    ID : 4611 (0x1203)
    Menu ID : 1 (0x1)
    Format : PGS
    Codec ID : 144
    Delay relative to video : 13s 41ms
    Language : Spanish
  Text #4612
    ID : 4612 (0x1204)
    Menu ID : 1 (0x1)
    Format : PGS
    Codec ID : 144
    Delay relative to video : 12s 874ms
    Language : Italian
  Text #4613
    ID : 4613 (0x1205)
    Menu ID : 1 (0x1)
    Format : PGS
    Codec ID : 144
    Delay relative to video : 12s 874ms
    Language : German
  Text #4614
    ID : 4614 (0x1206)
    Menu ID : 1 (0x1)
    Format : PGS
    Codec ID : 144
    Delay relative to video : 12s 874ms
    Language : Polish
  Text #4615
    ID : 4615 (0x1207)
    Menu ID : 1 (0x1)
    Format : PGS
    Codec ID : 144
    Duration : 1h 39mn
    Delay relative to video : 13s 41ms
    Language : Portuguese

  评论这张
 
阅读(128)| 评论(0)
推荐 转载

历史上的今天

在LOFTER的更多文章

评论

<#--最新日志,群博日志--> <#--推荐日志--> <#--引用记录--> <#--博主推荐--> <#--随机阅读--> <#--首页推荐--> <#--历史上的今天--> <#--被推荐日志--> <#--上一篇,下一篇--> <#-- 热度 --> <#-- 网易新闻广告 --> <#--右边模块结构--> <#--评论模块结构--> <#--引用模块结构--> <#--博主发起的投票-->
 
 
 
 
 
 
 
 
 
 
 
 
 
 

页脚

网易公司版权所有 ©1997-2017