注册 登录  
 加关注
   显示下一条  |  关闭
温馨提示!由于新浪微博认证机制调整,您的新浪微博帐号绑定已过期,请重新绑定!立即重新绑定新浪微博》  |  关闭

逆风飞翔的鸟

追逐风中散落的默契~

 
 
 

日志

 
 
关于我

曾经迷惑于一份距离 曾经感动于一个传说 …… 在仆仆风中 我伸手 抓住你我的缘分 …… “傻傻”的你 能闻到风中 你我的默契吗?!

网易考拉推荐

【幻想】Return.Of.The.Living.Dead.3.1993.活死人归来3  

2012-04-18 11:08:01|  分类: 幻想 |  标签: |举报 |字号 订阅

  下载LOFTER 我的照片书  |
【幻想】Return.Of.The.Living.Dead.3.1993.活死人归来3 - 归鸿 - 归鸿影音

◎译  名  生人回避3/活死人归来3
◎片  名  Return of the Living Dead III
◎年  代  1993
◎国  家  美国
◎类  别  恐怖/爱情/科幻
◎语  言  英语
◎IMDB链接  http://www.7176.com/title/tt0107953
◎片  长  93 mins 0 seconds
◎导  演  布莱恩·尤兹纳 Brian Yuzna
◎编  剧  约翰·喷尼 John Penney....written by
◎主  演  Kent McCord....Colonel John Reynolds
       美琳达·克拉克Melinda Clarke....Julie Walker as Mindy Clarke
       Abigail Lenz....Mindy
       Jill Andre....Chief Scientist
       Billy Kane....Sentry
       Julian Scott Urena....Mogo as Fabio Urena
       Sal Lopez....Felipe
       Michael Deak....Cop #1 as Michael S. Deak
       Basil Wallace....Riverman
       David Wells....Laboratory Technician
       Anthony Hickox....Dr. Hickox as Tony Hickox
       Rob Hampton....Barrel Corpse uncredited
       Gerry Lively....Quartermaster uncredited
       Gary Schmoeller....Base Captain uncredited


◎简  介

  寇特为军方科学家之子,其父在军中利用特殊药剂将死人复活。某日寇特女友茱莉车祸身亡,为了让女友复活,遂利用其父的特殊技术将茱莉还魂,却不知此一技术并无法使死人真正复活,只能使死人具活动能力,成为吃人僵尸……

  尽管茱莉头脑清醒,尚有思想,可无法克制自己吃人的欲望,无奈之下寇特将她交给军方,不料他发现军方科学家对这些”活死人”进行残酷的人身实验,于心不忍,终将茱莉又解救出来。

  二人逃跑时不小心打破了装有可以使僵尸复活气体的容器,致使僵尸全部复活,寇特不幸被怪物咬伤,得知自己也将会变成僵尸,寇特和茱莉一起走进火中,在烈火中得到永生。

 

  General #1
    ID : 1 (0x1)
    Complete name : 00000.m2ts
    Format : BDAV
    Format/Info : Blu-ray Video
    File size : 14.2 GiB
    Duration : 1h 32mn
    Overall bit rate mode : Variable
    Overall bit rate : 21.8 Mbps
    Maximum Overall bit rate : 35.5 Mbps
  Video #4113
    ID : 4113 (0x1011)
    Menu ID : 1 (0x1)
    Format : MPEG Video
    Format version : Version 2
    Format profile : Main@High
    Format settings, BVOP : Yes
    Format settings, Matrix : Custom
    Format settings, GOP : M=3, N=12
    Codec ID : 2
    Duration : 1h 32mn
    Bit rate mode : Variable
    Bit rate : 20.8 Mbps
    Maximum bit rate : 27.0 Mbps
    Width : 1 920 pixels
    Height : 1 080 pixels
    Display aspect ratio : 16:9
    Frame rate : 25.000 fps
    Standard : Component
    Color space : YUV
    Chroma subsampling : 4:2:0
    Bit depth : 8 bits
    Scan type : Interlaced
    Scan order : Top Field First
    Compression mode : Lossy
    Bits/(Pixel*Frame) : 0.400
    Stream size : 13.5 GiB (95%)
    Color primaries : BT.709
    Transfer characteristics : BT.709
    Matrix coefficients : BT.709
  Audio #4352
    ID : 4352 (0x1100)
    Menu ID : 1 (0x1)
    Format : AC-3
    Format/Info : Audio Coding 3
    Mode extension : CM (complete main)
    Codec ID : 129
    Duration : 1h 32mn
    Bit rate mode : Constant
    Bit rate : 192 Kbps
    Channel(s) : 2 channels
    Channel positions : Front: L R
    Sampling rate : 48.0 KHz
    Bit depth : 16 bits
    Compression mode : Lossy
    Stream size : 128 MiB (1%)
    Language : English
  Text #4608
    ID : 4608 (0x1200)
    Menu ID : 1 (0x1)
    Format : PGS
    Codec ID : 144
    Delay relative to video : 7s 680ms
    Language : Chinese

  评论这张
 
阅读(187)| 评论(0)
推荐 转载

历史上的今天

在LOFTER的更多文章

评论

<#--最新日志,群博日志--> <#--推荐日志--> <#--引用记录--> <#--博主推荐--> <#--随机阅读--> <#--首页推荐--> <#--历史上的今天--> <#--被推荐日志--> <#--上一篇,下一篇--> <#-- 热度 --> <#-- 网易新闻广告 --> <#--右边模块结构--> <#--评论模块结构--> <#--引用模块结构--> <#--博主发起的投票-->
 
 
 
 
 
 
 
 
 
 
 
 
 
 

页脚

网易公司版权所有 ©1997-2017