注册 登录  
 加关注
   显示下一条  |  关闭
温馨提示!由于新浪微博认证机制调整,您的新浪微博帐号绑定已过期,请重新绑定!立即重新绑定新浪微博》  |  关闭

逆风飞翔的鸟

追逐风中散落的默契~

 
 
 

日志

 
 
关于我

曾经迷惑于一份距离 曾经感动于一个传说 …… 在仆仆风中 我伸手 抓住你我的缘分 …… “傻傻”的你 能闻到风中 你我的默契吗?!

网易考拉推荐

【剧情】Letter.Never.Sent.1960.未寄出的信  

2012-04-18 10:08:29|  分类: 剧情 |  标签: |举报 |字号 订阅

  下载LOFTER 我的照片书  |
【剧情】Letter.Never.Sent.1960.未寄出的信 - 归鸿 - 归鸿影音

◎译  名 未寄出的信
◎片  名 Letter Never Sent
◎年  代 1960
◎国  家 苏联 
◎类  别 爱情/剧情
◎语  言 俄语
◎IMDB链接  http://www.imdb.com/title/tt0053106/
◎片  长 97 Mins
◎导  演 米哈依尔·卡拉托佐夫 Mikhail Kalatozov  ....(as Mikhail Kalatozov)
◎主  演 塔吉娅娜·萨莫依洛娃 Tatyana Samojlova  ....Tanya
      Innokenti Smoktunovsky  ....Sabinine
      Galina Kozhakina  ....Vera
      Vasili Livanov  ....Andrei
      Yevgeni Urbansky  ....Sergei
      

◎简  介 

    故事发生在西伯利亚的雅库原始森林里,一支由四人组成的地质勘探小分队在寻找金刚石矿床。勘探工作很艰苦,一个夏天过去了,他们仍然一无所获。正当大家开始泄气的时候,女队员丹妮娅在坑底挖到了一块金刚石。然而大家撤退之际,却遇到森林大火。在恶劣的环境中,向导谢尔盖、队员安德烈和丹妮娅都先后倒在树林中,最后只有奄奄一息的队长萨比宁把地图带了回去。

◎幕后制作

    这部影片在题材方面在当时的苏联算是小小突破,表现了人与大自然、生命与死亡的抗争,反映人在征服大自然的过程中,要付出惨痛代价,并不是经常能人定胜天。

 

  General #1
    ID : 1 (0x1)
    Complete name : 00000.m2ts
    Format : BDAV
    Format/Info : Blu-ray Video
    File size : 24.7 GiB
    Duration : 1h 36mn
    Overall bit rate mode : Variable
    Overall bit rate : 36.8 Mbps
    Maximum Overall bit rate : 35.5 Mbps
  Video #4113
    ID : 4113 (0x1011)
    Menu ID : 1 (0x1)
    Format : AVC
    Format/Info : Advanced Video Codec
    Format profile : High@L4.1
    Format settings, CABAC : Yes
    Format settings, ReFrames : 4 frames
    Codec ID : 27
    Duration : 1h 36mn
    Bit rate mode : Variable
    Bit rate : 35.1 Mbps
    Maximum bit rate : 37.0 Mbps
    Width : 1 920 pixels
    Height : 1 080 pixels
    Display aspect ratio : 16:9
    Frame rate : 23.976 fps
    Color space : YUV
    Chroma subsampling : 4:2:0
    Bit depth : 8 bits
    Scan type : Progressive
    Bits/(Pixel*Frame) : 0.706
    Stream size : 23.6 GiB (95%)
  Audio #4352
    ID : 4352 (0x1100)
    Menu ID : 1 (0x1)
    Format : AC-3
    Format/Info : Audio Coding 3
    Mode extension : CM (complete main)
    Codec ID : 129
    Duration : 1h 36mn
    Bit rate mode : Constant
    Bit rate : 224 Kbps
    Channel(s) : 1 channel
    Channel positions : Front: C
    Sampling rate : 48.0 KHz
    Bit depth : 16 bits
    Compression mode : Lossy
    Stream size : 154 MiB (1%)
    Language : Russian
  Text #4608
    ID : 4608 (0x1200)
    Menu ID : 1 (0x1)
    Format : PGS
    Codec ID : 144
    Language : Chinese

  评论这张
 
阅读(114)| 评论(0)
推荐 转载

历史上的今天

在LOFTER的更多文章

评论

<#--最新日志,群博日志--> <#--推荐日志--> <#--引用记录--> <#--博主推荐--> <#--随机阅读--> <#--首页推荐--> <#--历史上的今天--> <#--被推荐日志--> <#--上一篇,下一篇--> <#-- 热度 --> <#-- 网易新闻广告 --> <#--右边模块结构--> <#--评论模块结构--> <#--引用模块结构--> <#--博主发起的投票-->
 
 
 
 
 
 
 
 
 
 
 
 
 
 

页脚

网易公司版权所有 ©1997-2017