注册 登录  
 加关注
   显示下一条  |  关闭
温馨提示!由于新浪微博认证机制调整,您的新浪微博帐号绑定已过期,请重新绑定!立即重新绑定新浪微博》  |  关闭

逆风飞翔的鸟

追逐风中散落的默契~

 
 
 

日志

 
 
关于我

曾经迷惑于一份距离 曾经感动于一个传说 …… 在仆仆风中 我伸手 抓住你我的缘分 …… “傻傻”的你 能闻到风中 你我的默契吗?!

网易考拉推荐

【幻想】The.Terror.Experiment.2011.恐怖实验  

2012-04-17 11:12:53|  分类: 幻想 |  标签: |举报 |字号 订阅

  下载LOFTER 我的照片书  |
【幻想】The.Terror.Experiment.2011.恐怖实验 - 归鸿 - 归鸿影音

◎译  名 病毒禁区/恐怖实验
◎片  名 The Terror Experiment / Fight or Flight
◎年  代 2011
◎国  家 美国
◎类  别 动作/惊悚
◎IMDB链接  http://www.imdb.com/title/tt1323917/
◎语  言 英语
◎字  幕 中文
◎片  长 82 mins 13 seconds
◎导  演 Chris Briant
◎主  演 C·托马斯·豪威尔 C. Thomas Howell ....Chief Grasso
      贾德·尼尔森 Judd Nelson ....Agent Wilson
      罗伯特·卡拉丁 Robert Carradine ....Dr. Wexler
      杰森·伦敦 Jason London ....Cale
      Lochlyn Munro ....Loham
      莎拉·莱恩 Sarah Laine ....Carol Milner
      Alicia Leigh Willis ....Mandy
      Edrick Browne ....Marine Tony
      Darcel White Moreno ....Anne
      Chuck Bush ....Detective Leary
      Mike Mayhall ....Davis - Haz-Mat
      Dunbar Merrill ....Eric
      Alexander Mendeluk ....Ryan
      泰德·弗格森 Ted Ferguson ....The Old Accountant
      George Mendeluk ....The Old Accountant
      Zachariah Jay ....Doctor #1
      Patty Yu ....June
      Johnny Rock ....George
      R.D. Miller Jr. ....News Anchor
      Nikki Hester ....Woman
      Jerry Leggio ....Dr. Andzari
      Henry Boger ....Helicopter Pilot
      Brett Beoubay ....Elevator Passenger
      Mia Allen ....Infected
      Dominick LaBanca ....Security Guard
      Arielle Stephens ....Allie
      Jeff Jonas ....Officer Burnes
      Lee D. Potter ....Infected
      John Chambers ....Williams
      Lauren Roehm ....Shay
      Ira Kortum ....Homeless Drunk
      C. Erica Potter ....Infected
      Jamie Mallory ....Infected
      Brandon Duracher ....Agent Riley
      Ismail Abdur-Rahman ....Infected
      Darren Arnaud ....S.W.A.T. guy
      Raymond Hebert ....Businessman
      Seth Duhy ....S.W.A.T Guy
      Kale Arndt ....Infected
      Aaron Phillip Stark ....Dispatcher (voice)
      Paul Boger ....Thomas Rouge
      Chandler Adams ....Infected


◎简  介 

  恐怖分子在联邦大厦内制造了大爆炸,爆炸释放出的有毒气体通过通风系统传播。而他们的目的是:揭露政府的秘密生物武器,那是一种致命的病毒。它能立即攻击人的肾上腺系统,使吸入这种有毒气体的人具有超越常人能力,但他们将不再是人因为这种气体让他们失去理智,成为了杀人工具。

  病毒在联邦大楼内散布开来,员工变得嗜血且具攻击性,一组未被病毒感染的员工必须连合起来,为了自己的生命而战斗。感染者正急速威胁著整栋大楼,即将揭发其中的政治阴谋。

 

  General #1
    ID : 1 (0x1)
    Complete name : 00000.m2ts
    Format : BDAV
    Format/Info : Blu-ray Video
    File size : 15.4 GiB
    Duration : 1h 22mn
    Overall bit rate mode : Variable
    Overall bit rate : 26.9 Mbps
    Maximum Overall bit rate : 35.5 Mbps
  Video #4113
    ID : 4113 (0x1011)
    Menu ID : 1 (0x1)
    Format : AVC
    Format/Info : Advanced Video Codec
    Format profile : High@L4.1
    Format settings, CABAC : Yes
    Format settings, ReFrames : 2 frames
    Codec ID : 27
    Duration : 1h 22mn
    Bit rate mode : Variable
    Bit rate : 25.2 Mbps
    Width : 1 920 pixels
    Height : 1 080 pixels
    Display aspect ratio : 16:9
    Frame rate : 23.976 fps
    Color space : YUV
    Chroma subsampling : 4:2:0
    Bit depth : 8 bits
    Scan type : Progressive
    Bits/(Pixel*Frame) : 0.507
    Stream size : 14.5 GiB (94%)
  Audio #4352
    ID : 4352 (0x1100)
    Menu ID : 1 (0x1)
    Format : AC-3
    Format/Info : Audio Coding 3
    Mode extension : CM (complete main)
    Codec ID : 129
    Duration : 1h 22mn
    Bit rate mode : Constant
    Bit rate : 640 Kbps
    Channel(s) : 6 channels
    Channel positions : Front: L C R, Side: L R, LFE
    Sampling rate : 48.0 KHz
    Bit depth : 16 bits
    Compression mode : Lossy
    Stream size : 376 MiB (2%)
    Language : English
  Text #4608
    ID : 4608 (0x1200)
    Menu ID : 1 (0x1)
    Format : PGS
    Codec ID : 144
    Delay relative to video : 1s 668ms
    Language : Chinese
  Text #4609
    ID : 4609 (0x1201)
    Menu ID : 1 (0x1)
    Format : PGS
    Codec ID : 144
    Delay relative to video : 1s 668ms
    Language : Chinese
  Text #4610
    ID : 4610 (0x1202)
    Menu ID : 1 (0x1)
    Format : PGS
    Codec ID : 144
    Delay relative to video : 8s 675ms
    Language : English
  Text #4611
    ID : 4611 (0x1203)
    Menu ID : 1 (0x1)
    Format : PGS
    Codec ID : 144
    Delay relative to video : 8s 926ms
    Language : Spanish

  评论这张
 
阅读(178)| 评论(0)
推荐 转载

历史上的今天

在LOFTER的更多文章

评论

<#--最新日志,群博日志--> <#--推荐日志--> <#--引用记录--> <#--博主推荐--> <#--随机阅读--> <#--首页推荐--> <#--历史上的今天--> <#--被推荐日志--> <#--上一篇,下一篇--> <#-- 热度 --> <#-- 网易新闻广告 --> <#--右边模块结构--> <#--评论模块结构--> <#--引用模块结构--> <#--博主发起的投票-->
 
 
 
 
 
 
 
 
 
 
 
 
 
 

页脚

网易公司版权所有 ©1997-2017