注册 登录  
 加关注
   显示下一条  |  关闭
温馨提示!由于新浪微博认证机制调整,您的新浪微博帐号绑定已过期,请重新绑定!立即重新绑定新浪微博》  |  关闭

逆风飞翔的鸟

追逐风中散落的默契~

 
 
 

日志

 
 
关于我

曾经迷惑于一份距离 曾经感动于一个传说 …… 在仆仆风中 我伸手 抓住你我的缘分 …… “傻傻”的你 能闻到风中 你我的默契吗?!

网易考拉推荐

【亚洲】Living.1952.生之欲  

2012-04-01 23:08:16|  分类: 亚洲 |  标签: |举报 |字号 订阅

  下载LOFTER 我的照片书  |
【亚洲】Living.1952.生之欲 - 归鸿 - 归鸿影音

◎译  名 生之欲/留芳颂/活着/活下去
◎片  名 Ikiru/Living
◎年  代 1952
◎国  家 日本 
◎类  别 剧情  
◎语  言 日语  
◎IMDB链接  http://www.imdb.com/title/tt0044741/
◎片  长 143 min / USA:140 min
◎导  演 黑泽明 Akira Kurosawa
◎主  演 志村乔 Takashi Shimura  ....Kanji Watanabe
       千秋实 Minoru Chiaki  ....Tahei
       藤原釜足 Kamatari Fujiwara  ....Matakishi
       金子信雄 Nobuo Kaneko  ....Mitsuo Watanabe, Kanji's son
       中村伸郎 Nobuo Nakamura  ....Deputy Mayor
       浦边粂子 Kumeko Urabe  ....Tatsu Watanabe, Kiichi's Wife
       菅井琴 Kin Sugai  ....Housewife
       三好荣子 Eiko Miyoshi  ....Housewife
       丹阿弥谷津子 Yatsuko Tanami  ....Bar Hostess
       宫口精二 Seiji Miyaguchi  ....Yakuza Boss
       加东大介 Daisuke Kat?  ....Yakuza
        日守新一 Shin'ichi Himori  ....Kimura
       田中春男 Haruo Tanaka  ....Sakai
       小田切美喜 Miki Odagiri  ....Toyo Odagiri, employee
       左卜全 Bokuzen Hidari  ....Ohara
       山田巳之助 Minosuke Yamada  ....Subordinate Clerk Saito
       小堀诚 Makoto Kobori  ....Kiichi Watanabe, Kanji's Brother
       渡边笃 Atsushi Watanabe  ....Patient
       木村功 Isao Kimura  ....Intern
       清水将夫 Masao Shimizu  ....Doctor
       伊藤雄之助 Y?nosuke It?  ....Novelist
       本间文子 Fumiko Honma  ....Housewife
    
 
◎简  介 
 
  影片描述一个得胃癌晚期的模范公务员老人,在生命的最后时刻所遭遇的种种。当他回到家中时,却听到唯一的儿子和媳妇想利用他的退休金及储蓄,到外面另组小家庭。伤心的渡边望着亡妻的照片老泪纵横。在一位年轻的女部属的帮助下。他打起精神,亲自督促建设社区公园。但所有的功劳却为上司所夺。最后渡边决定在公园里渡过他生命中的最后一刻,以表示他的抗议与愤怒,渡边的行动令部下们十分感动。
 

◎幕后制作
 
    此片获当年旬报十佳奖第一名,入选日本名片200部。本片以流畅的叙事和丰富的视听手段,表现出普通人对死亡的恐惧和对生存的渴望,被认为是世界电影史上的经典作品之一,是导演黑泽明作品中最出色的一部。影片触及到了日本当时社会现实主题:人为什么活着这一哲理问题,使人看后精神为之一震。本片中描写的当时的社会风俗,对观众了解日本战后史有一定价值,同时它对官僚机构的本质揭露的淋漓尽致,并给予尖锐的批判。

◎获奖情况 
 
1954年 柏林国际电影节 Special Prize of the Senate of Berlin 黑泽明
1953年 Mainichi Film Concours(Mainichi Film Concours) 最佳影片 黑泽明
1953年 Mainichi Film Concours(Mainichi Film Concours) 最佳剧本 黑泽明

 

  General #1
    ID : 1 (0x1)
    Complete name : 00000.m2ts
    Format : BDAV
    Format/Info : Blu-ray Video
    File size : 40.1 GiB
    Duration : 2h 22mn
    Overall bit rate mode : Variable
    Overall bit rate : 40.1 Mbps
    Maximum Overall bit rate : 35.5 Mbps
  Video #4113
    ID : 4113 (0x1011)
    Menu ID : 1 (0x1)
    Format : AVC
    Format/Info : Advanced Video Codec
    Format profile : High@L4.1
    Format settings, CABAC : Yes
    Format settings, ReFrames : 4 frames
    Codec ID : 27
    Duration : 2h 22mn
    Bit rate mode : Variable
    Bit rate : 38.2 Mbps
    Maximum bit rate : 40.0 Mbps
    Width : 1 920 pixels
    Height : 1 080 pixels
    Display aspect ratio : 16:9
    Frame rate : 23.976 fps
    Color space : YUV
    Chroma subsampling : 4:2:0
    Bit depth : 8 bits
    Scan type : Progressive
    Bits/(Pixel*Frame) : 0.767
    Stream size : 38.1 GiB (95%)
    Color primaries : BT.709-5, BT.1361, IEC 61966-2-4, SMPTE RP177
    Transfer characteristics : BT.709-5, BT.1361
    Matrix coefficients : BT.709-5, BT.1361, IEC 61966-2-4 709, SMPTE RP177
  Audio #4352
    ID : 4352 (0x1100)
    Menu ID : 1 (0x1)
    Format : AC-3
    Format/Info : Audio Coding 3
    Mode extension : CM (complete main)
    Codec ID : 129
    Duration : 2h 22mn
    Bit rate mode : Constant
    Bit rate : 384 Kbps
    Channel(s) : 2 channels
    Channel positions : Front: L R
    Sampling rate : 48.0 KHz
    Bit depth : 16 bits
    Compression mode : Lossy
    Stream size : 393 MiB (1%)
    Language : Japanese
  Text #4608
    ID : 4608 (0x1200)
    Menu ID : 1 (0x1)
    Format : PGS
    Codec ID : 144
    Language : Chinese

  评论这张
 
阅读(159)| 评论(0)
推荐 转载

历史上的今天

在LOFTER的更多文章

评论

<#--最新日志,群博日志--> <#--推荐日志--> <#--引用记录--> <#--博主推荐--> <#--随机阅读--> <#--首页推荐--> <#--历史上的今天--> <#--被推荐日志--> <#--上一篇,下一篇--> <#-- 热度 --> <#-- 网易新闻广告 --> <#--右边模块结构--> <#--评论模块结构--> <#--引用模块结构--> <#--博主发起的投票-->
 
 
 
 
 
 
 
 
 
 
 
 
 
 

页脚

网易公司版权所有 ©1997-2017