注册 登录  
 加关注
   显示下一条  |  关闭
温馨提示!由于新浪微博认证机制调整,您的新浪微博帐号绑定已过期,请重新绑定!立即重新绑定新浪微博》  |  关闭

逆风飞翔的鸟

追逐风中散落的默契~

 
 
 

日志

 
 
关于我

曾经迷惑于一份距离 曾经感动于一个传说 …… 在仆仆风中 我伸手 抓住你我的缘分 …… “傻傻”的你 能闻到风中 你我的默契吗?!

网易考拉推荐

【动作】To.Catch.a.Thief.1955.捉贼记  

2012-03-31 15:29:21|  分类: 动作 |  标签: |举报 |字号 订阅

  下载LOFTER 我的照片书  |
【动作】To.Catch.a.Thief.1955.捉贼记 - 归鸿 - 归鸿影音

◎译  名 捉贼记
◎片  名 To Catch a Thief
◎年  代 1955
◎国  家 美国 
◎类  别 爱情/惊悚/悬疑
◎语  言 英语
◎IMDB链接  http://www.imdb.com/title/tt0048728/
◎片  长 106 Mins
◎导  演 阿尔弗雷德·希区柯克 Alfred Hitchcock
◎主  演 加里·格兰特 Cary Grant  ....John Robie
      格蕾丝·凯利 Grace Kelly  ....Frances Stevens
      约翰·威廉姆斯 John Williams  ....H. H. Hughson
      查尔斯·文恩 Charles Vanel  ....Bertani
      阿尔弗雷德·希区柯克 Alfred Hitchcock  ....Man sitting next to John Robie on bus
      洁茜·罗伊丝·兰迪斯 Jessie Royce Landis  ....Jessie Stevens
      

◎简  介 

  电影《捉贼记》剧照是一部由电影悬念大师希区柯克执导,充满罗曼蒂克情调的喜剧片。镜头沿著绿草如茵的里维也纳(Riviera)拍摄,一路风光明媚、景色怡人,呈现出无比的宁静与祥和。

  本片是格蕾丝.凯莉继《电话谋杀案》(Dial M For Murder)及《后窗》之后,连续第三次主演希区柯克的影片,它同时也是希区柯克在拍完一系列谋杀、悬疑、紧张的影片之后,有意改变风格,选择较为轻松的题材所拍摄完成的一部喜剧片,内容颇具罗曼蒂克的气氛,主轴也由谋杀淡化为偷窃的行为。

  其所展现的手法有如一个淘气的小学生,布局天真而幽默,将凯莉如火般的性感及格兰特冷酷迷人的魅力一展无遗。

  本片虽迥异于希区柯克惯有的充满紧张、悬疑的故事情节,但却充份展露出其另类的幽默风格,双关语的运用让片中妙语连珠,观者莫不露出会心一笑。

  事实上,片名本身即令人拍案叫绝。警察千方百计试图捉贼乃职责所在,无可厚非;格兰特为了洗清罪嫌,绞尽脑汁捉贼;而凯莉不是为了维护法律的尊严,完全出自于其自身心态下捉贼,最后反为贼所捉,与贼陷入情网,其巧妙的布局令人折服。

  《捉贼记》与希区柯克其他一系列的作品一般,如预期地创下极高的票房收入,其天然彩色的摄影技巧更在奥斯卡颁奖典礼上大放异彩,遗憾的是希区柯克本人没有获奖。

◎精彩评论

  For a moment he forgets he's a thief--and she forgets she's a lady!
  格蕾丝·凯莉赋予了人物难以置信的闪亮魅力。
  ——《阿波罗导报》

◎幕后制作

  节奏明快、诙谐风趣的浪漫惊险片,这部希区柯克作品更多的是以幽默元素和浪漫爱情取胜的。项围红丝巾的约翰·罗比,简直就是约翰·韦恩西部游侠的欧洲化身,这个超凡的角色从一开始就得到观众的认可,飞檐走壁如履平地,戏弄警察如戏顽童,悬念已经无可非议地让位给爱情。

  凯莉在戛纳宣传本片时,结识未来的王子丈夫,嫁入摩纳哥王室。

  希区柯克在这部电影当中所留下的“印记”就是一位乘公交车的老年男子,很有风度。格兰特是一位退役军人,并非是一个花瓶。来自俄勒冈州的木材商人骗不过贵妇人的研究,还有她的美丽动人的女儿。

  深夜,一只黑猫在屋顶上出没;屋子里,一双戴着手套的手正在翻弄着箱子里的珠宝钻石;第二天早上则是丢失珠宝的尖叫声。

  曾经外号“黑猫”的约翰·罗比正和心爱的黑猫在自己风景优美的乡间别墅里过着悠闲的生活,警察却因为接连的珠宝失窃案找上门来。
约翰轻松地摆脱了警察的追踪,决定自己亲自调查是谁用自己的手法做的案。

  约翰来到巴先生的餐馆,巴先生战前本来也是窃贼集团首脑,战争中与约翰出生入死,战后开起餐馆,并收留了一大批出狱的犯人。约翰找不到线索,却被这些以前的犯人看作麻烦,警察又跟踪上门,只能离开。在餐馆侍者孚的女儿的帮助下,约翰来到戛纳海滩,孚的女儿是个刁蛮热情的女孩,一直在热烈地追求着约翰。

  在戛纳,约翰在保险公司经理的支持下,开始自己的计划,他根据一份财宝名单开始接近美国来的斯蒂文母女。斯蒂文太太是个直爽女子,美貌的斯蒂文小姐外表文静,独自一人时又热爱刺激生活。斯蒂文小姐从开始就识破了约翰的身份,但为了更多的刺激,和约翰不断玩着爱情游戏。

  斯蒂文母女的珠宝就在约翰身边失窃了,斯蒂文小姐误认为约翰欺骗了她们,十分愤怒,斯蒂文夫人却帮着约翰躲过警察的纠缠。约翰来到萧家别墅等待黑猫出现,在搏斗中将袭击自己的孚杀死,约翰逐渐明白了事情的真相。

  斯蒂文母女帮约翰混进规模盛大的化妆舞会,并由保险公司经理冒充约翰吸引注意力,真正的约翰躲在屋顶监视一切。就在约翰将要失去耐心的时候,黑猫出现了,正是孚的女儿。搏斗之中,约翰逼她说出幕后主使,正是旧习不改的巴先生,黑猫终于得以洗脱罪名。

  斯蒂文小姐一路追踪趁乱遁去的约翰·罗比,来到约翰的别墅,情不自禁地扑进他的怀抱……面对优美的景色,怀中的斯蒂文喃喃自语:“妈妈一定会喜欢这个地方的”。

  虽然也有悬念,也有警方追捕,也有珠宝窃案,也有生死搏斗,但这部希区柯克作品更多的是以幽默风趣和浪漫爱情取胜的。

  项围红丝巾的约翰·罗比,简直就是约翰·韦恩西部游侠的欧洲化身,独来独往,沉着冷静,只是男子汉气概中另有欧洲人的绅士风度而已。这个超凡的角色从一开始就得到观众的认可,飞檐走壁如履平地,戏弄警察如戏顽童,观众怎么会在乎他的生命安全呢?

  悬念已经无可非议地让位给爱情,但看一些幽默细节就足以说明希区柯克的用心所在了。斯蒂文小姐和约翰开飞车的段落,先是跟踪的警察在忙里偷闲踢毽子,再就是飞车当中可以紧急刹车让过行人却在马路上的一只鸡面前人仰车翻。

  希区柯克的爱情场面也如同他的悬念惊秫一样诱人,甚至更有一种优雅的风度。

 

  General #1
    ID : 1 (0x1)
    Complete name : 00000.m2ts
    Format : BDAV
    Format/Info : Blu-ray Video
    File size : 29.8 GiB
    Duration : 1h 46mn
    Overall bit rate mode : Variable
    Overall bit rate : 40.0 Mbps
    Maximum Overall bit rate : 35.5 Mbps
  Video #4113
    ID : 4113 (0x1011)
    Menu ID : 1 (0x1)
    Format : AVC
    Format/Info : Advanced Video Codec
    Format profile : High@L4.1
    Format settings, CABAC : Yes
    Format settings, ReFrames : 4 frames
    Codec ID : 27
    Duration : 1h 46mn
    Bit rate mode : Variable
    Bit rate : 38.2 Mbps
    Maximum bit rate : 39.0 Mbps
    Width : 1 920 pixels
    Height : 1 080 pixels
    Display aspect ratio : 16:9
    Frame rate : 23.976 fps
    Color space : YUV
    Chroma subsampling : 4:2:0
    Bit depth : 8 bits
    Scan type : Progressive
    Bits/(Pixel*Frame) : 0.768
    Stream size : 28.4 GiB (95%)
  Audio #4352
    ID : 4352 (0x1100)
    Menu ID : 1 (0x1)
    Format : AC-3
    Format/Info : Audio Coding 3
    Format profile : Dolby Digital
    Mode extension : CM (complete main)
    Codec ID : 129
    Duration : 1h 46mn
    Bit rate mode : Constant
    Bit rate : 224 Kbps
    Channel(s) : 2 channels
    Channel positions : Front: L R
    Sampling rate : 48.0 KHz
    Bit depth : 16 bits
    Compression mode : Lossy
    Stream size : 171 MiB (1%)
    Language : English
  Text #4608
    ID : 4608 (0x1200)
    Menu ID : 1 (0x1)
    Format : PGS
    Codec ID : 144
    Delay relative to video : 1s 210ms
    Language : Chinese
  Text #4609
    ID : 4609 (0x1201)
    Menu ID : 1 (0x1)
    Format : PGS
    Codec ID : 144
    Language : English

  评论这张
 
阅读(180)| 评论(0)
推荐 转载

历史上的今天

在LOFTER的更多文章

评论

<#--最新日志,群博日志--> <#--推荐日志--> <#--引用记录--> <#--博主推荐--> <#--随机阅读--> <#--首页推荐--> <#--历史上的今天--> <#--被推荐日志--> <#--上一篇,下一篇--> <#-- 热度 --> <#-- 网易新闻广告 --> <#--右边模块结构--> <#--评论模块结构--> <#--引用模块结构--> <#--博主发起的投票-->
 
 
 
 
 
 
 
 
 
 
 
 
 
 

页脚

网易公司版权所有 ©1997-2017