注册 登录  
 加关注
   显示下一条  |  关闭
温馨提示!由于新浪微博认证机制调整,您的新浪微博帐号绑定已过期,请重新绑定!立即重新绑定新浪微博》  |  关闭

逆风飞翔的鸟

追逐风中散落的默契~

 
 
 

日志

 
 
关于我

曾经迷惑于一份距离 曾经感动于一个传说 …… 在仆仆风中 我伸手 抓住你我的缘分 …… “傻傻”的你 能闻到风中 你我的默契吗?!

网易考拉推荐

【幻想】Sennentuntschi.2010.牧人的性玩偶  

2012-03-31 15:24:42|  分类: 幻想 |  标签: |举报 |字号 订阅

  下载LOFTER 我的照片书  |
【幻想】Sennentuntschi.2010.牧人的性玩偶 - 归鸿 - 归鸿影音

◎译  名 牧人的性玩偶
◎片  名 Sennentuntschi
◎年  代 2010
◎国  家 瑞士
◎类  别 神秘
◎语  言 瑞士语
◎IMDB链接  http://www.imdb.com/title/tt1296077
◎片  长 110 Min
◎导  演 迈克尔·斯特内 Michael Steiner
◎主  演 罗珊娜·马奎达 Roxane Mesquida  ....Sennentuntschi
      卡洛斯·李尔 Carlos Leal  ....Martin
      乔尔·巴斯曼 Joel Basman  ....Albert
      Hanspeter Müller  ....Notter (as Hanspeter Müller-Drossart)
      Daniel Rohr  ....Bauer St?hli
      Nicholas Ofczarek  ....Sebastian Reusch
      Andrea Zogg  ....Erwin
      Ueli J?ggi  ....Pfarrer Salis
      Peter Jecklin  ....Dr. Zingg
      Florian Nussbaumer  ....Polizist
      Rebecca Indermaur  ....Theres
      Thomas Landl  ....Pfleger Huwiler
      Anne-Marie Sievi  ....Grossmutter Lisbeth


◎简  介 

  这是一部由瑞士导演迈克·施坦纳根据《牧人的人偶》传说执导的惊悚片.在阿尔卑斯高山上孤独的牧人缺乏女性的陪伴,而制作出一个女性人偶来满足需要.这个人偶最终成了活人,开始向折磨她的人进行复仇.《牧人的人偶》被宣传为一个关于悲剧、肉欲、疯狂和谋杀的故事。
1975, Swiss Alps: In a remote mountain village, an immesely beautiful but disturbed and dumb woman shows up. Only the village policeman Reusch takes care of the strange woman and tries to find out whoshe is. There are hints that she came from the H?henalp Alp, where herdsmen do unthinkable things to get the company of women. Many dark truths are revealed that should better have remained hidden. A tragedy of lust, insanity and murder is brought to a seemlingly pure and perfect world. It is the beginning of a nightmare of religious insanity, hypocrisy, abuse and belief in demons, who destroys a young family and brings a whole village to destruction.


◎影     评

  牧人的玩偶是一个充斥着肉欲诱惑的传说,《牧人的性玩偶》也是是一部充斥着肉欲诱惑的电影,人类最原始的欲望能够令人失去所有的理智:神父因诱惑而强暴了一个吉普赛女人并放火烧掉了吉普赛人居住的房子,在并杀死了吉普赛女人之后将他们的女儿关在地下室里;老牧羊人因为诱惑而爱上自己的嫂子并有了一个因精神受到刺激而不愿说话的儿子;城里来的牧人自愿者是个杀人犯,从他的只言片语中也能看出他的失手杀人也是因为诱惑;警察帮助可怜女孩的动机似乎也不是那么单纯……可怜的女孩并不是传说中的牧人玩偶,并她自一出世就已经成为了人类欲望的玩偶,她对牧人的性侵犯并不反抗,因为警察对她好她就可以受怀送抱,她对食物有一种超乎常人的执着渴望,种种迹象表现女孩在教堂地下室里所过的是一种什么样的生活?看不到阳光,缺少食物,还要忍受来自己神父的侵犯以换来食物和水。

  长年与人类社会的隔离已经令她失去了同情心和罪恶感。因为自幼就缺少语言交流女孩不会说话,但她毕竟是高等灵长类动物,拥有极强的学习和模仿能力,她剥下牧羊人的皮缝制玩偶并没有什么邪恶动机,那只是单纯的模仿牧羊人做过的事情,或许她只是想到了那个在地下室里陪伴自己的娃娃而想给自己做三个新的娃娃。

  所有的恐惧与传说都随着主角的死亡而结束,只留下并未做什么坏事的哑巴男孩用镜子反射阳光为小姑娘指引蘑菇方向,当所有的一切最终划上句号时,哑巴男孩的站在森林的岩石上望着地面的人们,魔鬼带不走纯洁的灵魂,他应该会继续留在森林中为迷路的人指引道路吧。

 

  General #1
    ID : 1 (0x1)
    Complete name : 00000.m2ts
    Format : BDAV
    Format/Info : Blu-ray Video
    File size : 23.4 GiB
    Duration : 1h 55mn
    Overall bit rate mode : Variable
    Overall bit rate : 29.1 Mbps
    Maximum Overall bit rate : 35.5 Mbps
  Video #4113
    ID : 4113 (0x1011)
    Menu ID : 1 (0x1)
    Format : AVC
    Format/Info : Advanced Video Codec
    Format profile : High@L4.1
    Format settings, CABAC : Yes
    Format settings, ReFrames : 4 frames
    Codec ID : 27
    Duration : 1h 55mn
    Bit rate mode : Variable
    Bit rate : 25.9 Mbps
    Maximum bit rate : 36.0 Mbps
    Width : 1 920 pixels
    Height : 1 080 pixels
    Display aspect ratio : 16:9
    Frame rate : 24.000 fps
    Standard : NTSC
    Color space : YUV
    Chroma subsampling : 4:2:0
    Bit depth : 8 bits
    Scan type : Progressive
    Bits/(Pixel*Frame) : 0.520
    Stream size : 20.8 GiB (89%)
    Color primaries : BT.709-5, BT.1361, IEC 61966-2-4, SMPTE RP177
    Transfer characteristics : BT.709-5, BT.1361
    Matrix coefficients : BT.709-5, BT.1361, IEC 61966-2-4 709, SMPTE RP177
  Audio #4352
    ID : 4352 (0x1100)
    Menu ID : 1 (0x1)
    Format : DTS
    Format/Info : Digital Theater Systems
    Format profile : HRA / Core
    Muxing mode : Stream extension
    Codec ID : 133
    Duration : 1h 55mn
    Bit rate mode : Constant
    Bit rate : 2 047 Kbps / 1 510 Kbps
    Channel(s) : 6 channels
    Channel positions : Front: L C R, Side: L R, LFE
    Sampling rate : 48.0 KHz
    Bit depth : 24 bits
    Compression mode : Lossy
    Stream size : 1.64 GiB (7%)
    Language : English
  Text #4608
    ID : 4608 (0x1200)
    Menu ID : 1 (0x1)
    Format : PGS
    Codec ID : 144
    Language : Chinese

  评论这张
 
阅读(229)| 评论(0)
推荐 转载

历史上的今天

在LOFTER的更多文章

评论

<#--最新日志,群博日志--> <#--推荐日志--> <#--引用记录--> <#--博主推荐--> <#--随机阅读--> <#--首页推荐--> <#--历史上的今天--> <#--被推荐日志--> <#--上一篇,下一篇--> <#-- 热度 --> <#-- 网易新闻广告 --> <#--右边模块结构--> <#--评论模块结构--> <#--引用模块结构--> <#--博主发起的投票-->
 
 
 
 
 
 
 
 
 
 
 
 
 
 

页脚

网易公司版权所有 ©1997-2017