注册 登录  
 加关注
   显示下一条  |  关闭
温馨提示!由于新浪微博认证机制调整,您的新浪微博帐号绑定已过期,请重新绑定!立即重新绑定新浪微博》  |  关闭

逆风飞翔的鸟

追逐风中散落的默契~

 
 
 

日志

 
 
关于我

曾经迷惑于一份距离 曾经感动于一个传说 …… 在仆仆风中 我伸手 抓住你我的缘分 …… “傻傻”的你 能闻到风中 你我的默契吗?!

网易考拉推荐

【记录】Microcosmos.2.Genesis.2004.小宇宙2:基因狂想曲  

2012-03-31 14:36:48|  分类: 记录 |  标签: |举报 |字号 订阅

  下载LOFTER 我的照片书  |
【记录】Microcosmos.2.Genesis.2004.小宇宙2:基因狂想曲 - 归鸿 - 归鸿影音

◎译  名 基因狂想曲/小宇宙2:基因狂想曲
◎片  名 Microcosmos 2 Genesis
◎年  代 2004
◎国  家 法国/意大利 
◎类  别 纪录片
◎语  言 国法双语
◎IMDB链接  http://www.imdb.com/title/tt0287457/
◎片  长 81Mins
◎导  演 克劳德·纽利迪萨尼
            玛丽·佩莱诺
◎主  演 索提古·库亚特
      

◎简  介 

  法国生态电影大导演克劳德·纽利迪萨尼与玛丽·佩莱诺继《微观世界》之后,历经6年的酝酿,于 2004年推出又一力作:《基因狂想曲》。影片重现亿万年前混沌乍开、熔浆奔流的壮美气魄。大地冷却、落雨成海,终于在水中孕育出地球最初的生命……

  生命的起灭是严肃的哲思、是痛苦的参悟,但它也可以是一则云淡风轻的故事。影片结合幽默与严肃、纯真与智慧,一位年迈的非洲智者娓娓诉说生命的故事:这是真实的故事,也是我们每一个人的故事,关于天地、生死,当然,还有爱情。这位智者是亲切的祖父,也是时间的魔法师。他用温情的声音,将寰宇万象全都说成亲切的故事。


◎幕后制作

  在《微观世界》中,昆虫是无语的主角。没有旁白注脚,观众全然用自己的心思与眼耳来解读昆虫的一天;导演唯一用来提示情节的就是刻划入微的音效愈与配乐。同样地,在《基因狂想曲》里,音效师模拟制作出比自然更逼真的万物跫音;配乐的节奏与影片的脉动紧密结合,适切地铺陈出整部电影的转折与张力。

  不过,有别于《微观世界》纯粹以昆虫的视野为焦点,《基因狂想曲》的主题是宏观的,它讲的是自然界本身、与存在于自然界中的万物,因此,“人”的元素被置入了;选择非洲老祖父代言,因为非洲是人类发源的摇篮,他说的故事亦有以口述语言传承文化的意味。

 

  General #1
    ID : 1 (0x1)
    Complete name : 00000.m2ts
    Format : BDAV
    Format/Info : Blu-ray Video
    File size : 19.3 GiB
    Duration : 1h 20mn
    Overall bit rate mode : Variable
    Overall bit rate : 34.2 Mbps
    Maximum Overall bit rate : 35.5 Mbps
  Video #4113
    ID : 4113 (0x1011)
    Menu ID : 1 (0x1)
    Format : AVC
    Format/Info : Advanced Video Codec
    Format profile : High@L4.1
    Format settings, CABAC : Yes
    Format settings, ReFrames : 4 frames
    Format settings, GOP : M=3, N=24
    Codec ID : 27
    Duration : 1h 20mn
    Bit rate mode : Variable
    Bit rate : 31.6 Mbps
    Maximum bit rate : 36.0 Mbps
    Width : 1 920 pixels
    Height : 1 080 pixels
    Display aspect ratio : 16:9
    Frame rate : 24.000 fps
    Standard : NTSC
    Color space : YUV
    Chroma subsampling : 4:2:0
    Bit depth : 8 bits
    Scan type : Progressive
    Bits/(Pixel*Frame) : 0.635
    Stream size : 17.8 GiB (92%)
    Color primaries : BT.709-5, BT.1361, IEC 61966-2-4, SMPTE RP177
    Transfer characteristics : BT.709-5, BT.1361
    Matrix coefficients : BT.709-5, BT.1361, IEC 61966-2-4 709, SMPTE RP177
  Audio #4352
    ID : 4352 (0x1100)
    Menu ID : 1 (0x1)
    Format : TrueHD
    Codec ID : 131
    Duration : 33ms
    Bit rate mode : Variable
    Bit rate : 640 Kbps
    Maximum bit rate : 3 465 Kbps
    Channel(s) : 8 channels
    Channel positions : Front: L C R, Side: L R, Back: L R, LFE
    Sampling rate : 48.0 KHz
    Compression mode : Lossless
    Stream size : 2.58 KiB (0%)
    Language : French
  Audio #4353
    ID : 4353 (0x1101)
    Menu ID : 1 (0x1)
    Format : AC-3
    Format/Info : Audio Coding 3
    Mode extension : CM (complete main)
    Codec ID : 129
    Duration : 64ms
    Bit rate mode : Constant
    Bit rate : 640 Kbps
    Channel(s) : 6 channels
    Channel positions : Front: L C R, Side: L R, LFE
    Sampling rate : 48.0 KHz
    Bit depth : 16 bits
    Compression mode : Lossy
    Stream size : 5.00 KiB (0%)
    Language : Chinese
  Text #4608
    ID : 4608 (0x1200)
    Menu ID : 1 (0x1)
    Format : PGS
    Codec ID : 144
    Language : Chinese
  Text #4609
    ID : 4609 (0x1201)
    Menu ID : 1 (0x1)
    Format : PGS
    Codec ID : 144
    Language : English

  评论这张
 
阅读(480)| 评论(0)
推荐 转载

历史上的今天

在LOFTER的更多文章

评论

<#--最新日志,群博日志--> <#--推荐日志--> <#--引用记录--> <#--博主推荐--> <#--随机阅读--> <#--首页推荐--> <#--历史上的今天--> <#--被推荐日志--> <#--上一篇,下一篇--> <#-- 热度 --> <#-- 网易新闻广告 --> <#--右边模块结构--> <#--评论模块结构--> <#--引用模块结构--> <#--博主发起的投票-->
 
 
 
 
 
 
 
 
 
 
 
 
 
 

页脚

网易公司版权所有 ©1997-2017