注册 登录  
 加关注
   显示下一条  |  关闭
温馨提示!由于新浪微博认证机制调整,您的新浪微博帐号绑定已过期,请重新绑定!立即重新绑定新浪微博》  |  关闭

逆风飞翔的鸟

追逐风中散落的默契~

 
 
 

日志

 
 
关于我

曾经迷惑于一份距离 曾经感动于一个传说 …… 在仆仆风中 我伸手 抓住你我的缘分 …… “傻傻”的你 能闻到风中 你我的默契吗?!

网易考拉推荐

【动画】Tinker.Bell.And.The.Lost.Treasure.2009.小叮当与失去的宝藏  

2012-03-24 19:49:56|  分类: 动画 |  标签: |举报 |字号 订阅

  下载LOFTER 我的照片书  |
【动画】Tinker.Bell.And.The.Lost.Treasure.2009.小叮当与失去的宝藏 - 归鸿 - 归鸿影音

◎译  名 小叮当与失去的宝藏/廷克·贝尔与失去的宝藏/奇妙仙子与失落的宝藏
◎片  名 Tinker Bell And The Lost Treasure
◎年  代 2009
◎国  家 美国
◎类  别 动画/家庭/幻想
◎IMDB链接  http://www.imdb.com/title/tt1216516/
◎语  言 英语/粤语/普通话
◎字  幕 中文
◎片  长 80 mins 14 seconds
◎导  演 克雷·霍尔 Klay Hall
◎主  演 克里斯汀·肯诺恩斯 Kristin Chenoweth ...  Rosetta (voice)
      刘玉玲 Lucy Liu ...  Silvermist (voice)
      帕梅拉·艾德兰 Pamela Adlon ...  Vidia (voice)
      雷文·西蒙尼 Raven-Symoné ...  Iridessa (voice)
      梅·惠特曼 Mae Whitman ...  Tinker Bell (voice)
      杰西·麦卡尼 Jesse McCartney ...  Terence (voice)
      安杰丽卡·休斯顿 Anjelica Huston ...  Queen Clarion (voice)
      格蕾·德丽斯勒 Grey DeLisle ...  Lyria / Viola / Narrator (voice)
      约翰·迪·玛吉欧 John Di Maggio ...  Minister of Autumn
      简·霍洛克斯 Jane Horrocks ...  Fairy Mary (voice)
      杰夫·贝内特 Jeff Bennett ...  Clank / Short Troll / Fairy Gary (voice)
      罗伯·鲍森 Rob Paulsen ...  Bobble / Tall Troll / Owl (voice)
      罗杰·克莱格·史密斯Roger Craig Smith ...  Bolt / Stone (voice)
      鲍伯·卑尔根 Bob Bergen ...  Blaze / Bugs / Creatures (voice)
      托姆·A·埃尔南德斯 Thom Adcox-Hernandez ...  Flint (voice)
      安吉拉·巴迪斯 Angela Bartys ...  Fawn
      伊丽莎·波拉克·吉伯特 Eliza Pollack Zebert ...  Blaze (voice)
      阿利森·罗斯 Allison Roth ...  French Fairy


◎简  介 

    小叮当为了让仙子世界的神木恢复生气,决定亲手完成一项奇幻珍宝,她的朋友特伦斯想帮忙,但固执的廷克贝尔却不愿意,结果奇幻珍宝却意外弄坏了,也让小叮当和特伦斯友情生变,小叮当决定也前往梦幻岛的北方,寻找更珍贵的宝藏,然而在这趟旅途当中,小叮当却发现了一项更为珍贵的无价之宝...


◎影片幕后

    【奇妙仙子与失落的宝藏】(小叮当和失落宝物)是迪士尼卡通片厂所制作『奇妙仙子』系列的第二部作品,接续前一年2008年秋季所推出的【奇妙仙子】 (小叮当),第二集则于2009年的10月底在美国推出上市。

    迪士尼于2008年开始推出『奇妙仙子』系列电影,此系列作品都是以直接发行影音产品的方式推出,初期的计画是要推出四部电影,分别以春夏秋冬为背景,这部【奇妙仙子与失落的宝藏】就是一部秋天的故事。

    本片是由Sean Lurie担任制片人,由Klay Hall负责执导,由Spiliotopoulos负责编剧。配音演员方面则找回第一集的原班人马担任配音,包括Mae Whitman 、Jesse McCartney 、 Raven-Symone 、America Ferrera …等等。至于本片的配乐,也依然还是由第一集的配乐家Joel McNeely所负责,本片的电影原声带由迪士尼唱片发行。

 

  General #1
    ID : 1 (0x1)
    Complete name : 00000.m2ts
    Format : BDAV
    Format/Info : Blu-ray Video
    File size : 21.9 GiB
    Duration : 1h 20mn
    Overall bit rate mode : Variable
    Overall bit rate : 39.1 Mbps
    Maximum Overall bit rate : 35.5 Mbps
  Video #4113
    ID : 4113 (0x1011)
    Menu ID : 1 (0x1)
    Format : AVC
    Format/Info : Advanced Video Codec
    Format profile : High@L4.1
    Format settings, CABAC : Yes
    Format settings, ReFrames : 4 frames
    Codec ID : 27
    Duration : 1h 20mn
    Bit rate mode : Variable
    Bit rate : 34.5 Mbps
    Width : 1 920 pixels
    Height : 1 080 pixels
    Display aspect ratio : 16:9
    Frame rate : 23.976 fps
    Color space : YUV
    Chroma subsampling : 4:2:0
    Bit depth : 8 bits
    Scan type : Progressive
    Bits/(Pixel*Frame) : 0.694
    Stream size : 19.4 GiB (89%)
    Color primaries : BT.709-5, BT.1361, IEC 61966-2-4, SMPTE RP177
    Transfer characteristics : BT.709-5, BT.1361
    Matrix coefficients : BT.709-5, BT.1361, IEC 61966-2-4 709, SMPTE RP177
  Audio #4352
    ID : 4352 (0x1100)
    Menu ID : 1 (0x1)
    Format : DTS
    Format/Info : Digital Theater Systems
    Format profile : MA / Core
    Muxing mode : Stream extension
    Codec ID : 134
    Duration : 1h 20mn
    Bit rate mode : Variable
    Bit rate : 1 576 Kbps / 1 510 Kbps
    Channel(s) : 6 channels
    Channel positions : Front: L C R, Side: L R, LFE
    Sampling rate : 48.0 KHz
    Bit depth : 24 bits
    Compression mode : Lossless / Lossy
    Language : English
  Audio #4353
    ID : 4353 (0x1101)
    Menu ID : 1 (0x1)
    Format : AC-3
    Format/Info : Audio Coding 3
    Mode extension : CM (complete main)
    Codec ID : 129
    Duration : 1h 20mn
    Bit rate mode : Constant
    Bit rate : 640 Kbps
    Channel(s) : 6 channels
    Channel positions : Front: L C R, Side: L R, LFE
    Sampling rate : 48.0 KHz
    Bit depth : 16 bits
    Compression mode : Lossy
    Stream size : 367 MiB (2%)
    Language : Chinese
  Audio #4354
    ID : 4354 (0x1102)
    Menu ID : 1 (0x1)
    Format : AC-3
    Format/Info : Audio Coding 3
    Mode extension : CM (complete main)
    Codec ID : 129
    Duration : 1h 20mn
    Bit rate mode : Constant
    Bit rate : 640 Kbps
    Channel(s) : 6 channels
    Channel positions : Front: L C R, Side: L R, LFE
    Sampling rate : 48.0 KHz
    Bit depth : 16 bits
    Compression mode : Lossy
    Stream size : 367 MiB (2%)
    Language : Chinese

  评论这张
 
阅读(152)| 评论(0)
推荐 转载

历史上的今天

在LOFTER的更多文章

评论

<#--最新日志,群博日志--> <#--推荐日志--> <#--引用记录--> <#--博主推荐--> <#--随机阅读--> <#--首页推荐--> <#--历史上的今天--> <#--被推荐日志--> <#--上一篇,下一篇--> <#-- 热度 --> <#-- 网易新闻广告 --> <#--右边模块结构--> <#--评论模块结构--> <#--引用模块结构--> <#--博主发起的投票-->
 
 
 
 
 
 
 
 
 
 
 
 
 
 

页脚

网易公司版权所有 ©1997-2017