注册 登录  
 加关注
   显示下一条  |  关闭
温馨提示!由于新浪微博认证机制调整,您的新浪微博帐号绑定已过期,请重新绑定!立即重新绑定新浪微博》  |  关闭

逆风飞翔的鸟

追逐风中散落的默契~

 
 
 

日志

 
 
关于我

曾经迷惑于一份距离 曾经感动于一个传说 …… 在仆仆风中 我伸手 抓住你我的缘分 …… “傻傻”的你 能闻到风中 你我的默契吗?!

网易考拉推荐

【亚洲】Game.of.Death.1978.死亡游戏  

2012-03-01 20:54:41|  分类: 亚洲 |  标签: |举报 |字号 订阅

  下载LOFTER 我的照片书  |
【亚洲】Game.of.Death.1978.死亡游戏 - 归鸿 - 归鸿影音

◎译  名 死亡游戏
◎片  名 Game of the Death
◎年  代 1978
◎国  家 中国香港/美国
◎类  别 动作/罪案/剧情
◎语  言 英语
◎IMDB链接  http://www.imdb.com/title/tt0077594/
◎片  长 100 min
◎导  演 洪金宝 Sammo Hung  ....(uncredited)
       李小龙 Bruce Lee  ....(uncredited)
       Robert Clouse
◎主  演 李小龙 Bruce Lee  ....Billy Lo
       洪金宝 Sammo Hung  ....Lo Chen (as Hung Kim Po)
       考林·加普 Colleen Camp  ....Ann Morris
       元彪 Yuen Biao  ....Billy Lo (as Bill Yuen)
       田俊 James Tien  ....Charlie Wang
       乔宏 Roy Chiao  ....Henry Lo
       卡萨伐 Casanova Wong  ....Lau Yea-chun
       林正英 Ching-Ying Lam  ....Macau fighter
       刘家荣 Chia Yung Liu
       火星 Mars  ....Thug
       丁佩 Betty Ting Pei
       黄仁植 Ing-Sik Whang  ....Fighter
       元华 Wah Yuen  ....Lo Chen's second
       乔治·拉扎贝 George Lazenby  ....Fighter (archive footage) (uncredited)
       李昆 Kun Li  ....(archive footage) (uncredited)
       苗可秀 Nora Miao  ....(archive footage) (uncredited)
       衣依 Maria Yi  ....(archive footage) (uncredited)
       安德鲁·摩根 Andre Morgan
       迪恩·贾格尔 Dean Jagger  ....Dr. Land
       吉格·杨 Gig Young  ....Jim Marshall
       卡里姆·阿卜杜尔-贾巴尔 Kareem Abdul-Jabbar  ....Hakim
       休·欧布莱恩 Hugh O'Brian  ....Steiner
 
 
◎简  介 
 
  功夫巨星卢比利(李小龙饰)在电影片场遇到奇怪的意外,幸无损伤。原来他受到黑帮首领蓝博士的青睐,蓝多次企图要挟、拉拢卢加入其帮会,甚至恐吓其女友但卢誓不同流合污。
 
  未几,杀手接连突袭,卢正打算带女友丽出外暂避,但暗箭难防,在一次电影拍摄过程中,卢给枪手史迪斯击成重伤,于是卢将计就计佯死,并在治疗期间开始策划毁灭蓝博士的计划。
 
  蓝一伙到澳门企图操纵赌博牟利,卢乔装打扮,潜入蓝的寓所打伤蓝和几名打手,蓝开始对卢的“死亡”产生怀疑。接着,澳门举行世界空手道大赛,蓝派出高手出场,比赛过程中卢的女友赶到赛场,想暗杀蓝为卢报仇,卢立即阻止。
 
  赛后,卢潜入选手更衣室,击败蓝的空手道冠军。蓝派人到卢的墓地调查,终得知卢没有死。恼羞成怒的蓝挟持了丽,命令卢深夜一点到一个货舱。卢凭借高强的身手与匪徒周旋,终将其一一打败。
 
  卢连夜赶到蓝的犯罪机构,决定将其一网打尽。谁知大楼内埋伏了三名高手。为了壮大武打的场面,李小龙以其在国际武术界的地位,请来菲律宾的依力山度和以摔计著称的韩国高手,小龙还特地从美国邀请卡力姆亚布道尔 杰巴尔来港。杰巴尔是身高两百二十公分美国职业篮球队的明星球员,享誉颇佳,也是李小龙的徒弟之一。
 
  卢与首层与菲律宾高手比试双截棍是全剧的精华所在。李与依力山度使用的是相同的器械、不同的打法,高水平的棍法。让观众眼花缭乱卢经过数番苦战,过关斩将,一层一层逼近,终将蓝博士的犯罪团伙彻底粉碎。


◎幕后制作
 
    此部影片是李小龙的遗作,在拍摄这部影片时李小龙不幸逝世,后半部影片用替身完成,基于对李小龙的怀念仍然取得了票房佳绩。李小龙的一生是短暂的,但却如同一颗耀眼的彗星划过国际武坛的上空,对现代技击术和电影表演艺术的发展作出了巨大的贡献。
 
    他主演的功夫片风行海外,中国功夫也随之闻名于世界。许多外文字典和词典里都出现了一个新词:“功夫”(Kung fu)。李小龙生于美国三藩市,他的童年和少年是在香港度过的。李小龙幼时身体非常瘦弱。他父亲为了儿子的体魄强壮,在他7岁时便教其练习太极拳。李小龙在13岁时跟随名师叶问系统地学习了咏春拳,并在家中设一座木桩,每天对着木桩勤练不辍。此外,他还练过洪拳、白鹤拳、谭腿、少林拳、戳脚等拳种,为后来自创截拳道打下了坚实的基础。
 
  为了提高技击水平,李小龙除了勤习中国拳术外,还研究西洋拳的拳法,他一边参加西洋拳训练班,一边节省零用钱购买世界拳王路易士的拳击赛纪录片,从中学习拳王的步法、身法、拳法和训练方法;他还经常参加校内外的拳击比赛,不断丰富实战经验。赴美深造自创截拳道。1964年,美国在加利福尼亚州举行全美空手道比赛,当时年仅24岁的李小龙横扫所有选手取得了桂冠。
 
  李小龙经过精益求精的潜修苦练,使功夫逐渐娴熟乃至达到更高的境界。其中的“李三脚”、“寸拳”和“勾漏手”更是他的绝招。李小龙是个多面手,除了精通各种拳术外,还擅长长棍、短棍和二节棍等各种器械,并研习气功和硬功。李小龙从实战出发,以中国武术为基础,吸收西洋拳、空手道、跆拳道、泰国拳等技击术的优点和特长,总结多年的经验自创了一种拳术---截拳道。设馆广授徒宣扬真功夫。虽然李小龙已经逝世多年,可是他永远都是功夫之王武之圣者。
 


  General #1
    ID : 1 (0x1)
    Complete name : 00000.m2ts
    Format : BDAV
    Format/Info : Blu-ray Video
    File size : 15.9 GiB
    Duration : 1h 40mn
    Overall bit rate mode : Variable
    Overall bit rate : 22.7 Mbps
    Maximum Overall bit rate : 35.5 Mbps
  Video #4113
    ID : 4113 (0x1011)
    Menu ID : 1 (0x1)
    Format : AVC
    Format/Info : Advanced Video Codec
    Format profile : High@L4.1
    Format settings, CABAC : Yes
    Format settings, ReFrames : 4 frames
    Format settings, GOP : M=3, N=24
    Codec ID : 27
    Duration : 1h 40mn
    Bit rate mode : Variable
    Bit rate : 18.8 Mbps
    Maximum bit rate : 25.0 Mbps
    Width : 1 920 pixels
    Height : 1 080 pixels
    Display aspect ratio : 16:9
    Frame rate : 23.976 fps
    Standard : NTSC
    Color space : YUV
    Chroma subsampling : 4:2:0
    Bit depth : 8 bits
    Scan type : Progressive
    Bits/(Pixel*Frame) : 0.377
    Stream size : 13.2 GiB (83%)
    Color primaries : BT.709-5, BT.1361, IEC 61966-2-4, SMPTE RP177
    Transfer characteristics : BT.709-5, BT.1361
    Matrix coefficients : BT.709-5, BT.1361, IEC 61966-2-4 709, SMPTE RP177
  Audio #4352
    ID : 4352 (0x1100)
    Menu ID : 1 (0x1)
    Format : DTS
    Format/Info : Digital Theater Systems
    Format profile : MA / Core
    Muxing mode : Stream extension
    Codec ID : 134
    Duration : 1h 40mn
    Bit rate mode : Variable
    Bit rate : 2 395 Kbps / 1 510 Kbps
    Channel(s) : 8 channels / 6 channels
    Channel positions : Front: L C R, Side: L R, Back: L R, LFE / Front: L C R, Side: L R, LFE
    Sampling rate : 48.0 KHz
    Bit depth : 16 bits
    Compression mode : Lossless / Lossy
    Language : English
  Audio #4353
    ID : 4353 (0x1101)
    Menu ID : 1 (0x1)
    Format : AC-3
    Format/Info : Audio Coding 3
    Mode extension : CM (complete main)
    Codec ID : 129
    Duration : 1h 40mn
    Bit rate mode : Constant
    Bit rate : 640 Kbps
    Channel(s) : 6 channels
    Channel positions : Front: L C R, Side: L R, LFE
    Sampling rate : 48.0 KHz
    Bit depth : 16 bits
    Compression mode : Lossy
    Stream size : 459 MiB (3%)
    Language : English

  评论这张
 
阅读(184)| 评论(0)
推荐 转载

历史上的今天

在LOFTER的更多文章

评论

<#--最新日志,群博日志--> <#--推荐日志--> <#--引用记录--> <#--博主推荐--> <#--随机阅读--> <#--首页推荐--> <#--历史上的今天--> <#--被推荐日志--> <#--上一篇,下一篇--> <#-- 热度 --> <#-- 网易新闻广告 --> <#--右边模块结构--> <#--评论模块结构--> <#--引用模块结构--> <#--博主发起的投票-->
 
 
 
 
 
 
 
 
 
 
 
 
 
 

页脚

网易公司版权所有 ©1997-2017