注册 登录  
 加关注
   显示下一条  |  关闭
温馨提示!由于新浪微博认证机制调整,您的新浪微博帐号绑定已过期,请重新绑定!立即重新绑定新浪微博》  |  关闭

逆风飞翔的鸟

追逐风中散落的默契~

 
 
 

日志

 
 
关于我

曾经迷惑于一份距离 曾经感动于一个传说 …… 在仆仆风中 我伸手 抓住你我的缘分 …… “傻傻”的你 能闻到风中 你我的默契吗?!

网易考拉推荐

【亚洲】10.Years.Love.2008.十年爱  

2012-02-04 21:18:52|  分类: 亚洲 |  标签: |举报 |字号 订阅

  下载LOFTER 我的照片书  |
【亚洲】10.Years.Love.2008.十年爱 - 归鸿 - 归鸿影音

◎译  名 十年爱
◎片  名 10 Years Love / J?nen ai
◎年  代 2008
◎国  家 日本
◎类  别 剧情
◎IMDB链接  http://www.imdb.com/title/tt1282057/
◎语  言 日语
◎字  幕 中文
◎片  长 73 mins 3 seconds
◎导  演 植田中 Ataru Ueda
◎主  演 樱井麻里 Mari Sakurai
      末野卓磨 Takuma Sueno
      川村亚纪 Aki Kawamura
      药师寺保荣 Yasuei Yakushiji
      Wakana


 ◎简  介 
 
  高中三年级的夏天,高木迎来了最后一场校际比赛——高中足球赛决胜时刻,遗憾的是,主将高木弘也未能获胜,学校的英雄瞬间失去朋友与自信,并且因为这次失败失去了恋人。足球部干事麻里暗恋着担任主将的学长高木,一直喜欢弘也的麻理不忍心看他自暴自弃,甘愿用肉体去安慰他。高中毕业后,两人便分开了。为了找弘也,麻理不惜千里迢迢到新宿,无处容身的她被迫沦为妓女,阴差阳错邂逅弘也好友阿弘。
 
  为了找弘也,麻理不惜千里迢迢到新宿,无处容身的她被迫沦为妓女,阴差阳错邂逅弘也好友阿弘。不料阔别十年,麻理最终以妓女身份重遇同为牛郎的弘也······ 初恋情人与曾渡患难的现任男友,麻理将如何抉择﹖

 

  General #0
    ID : 0 (0x0)
    Complete name : 00000.m2ts
    Format : BDAV
    Format/Info : Blu-ray Video
    File size : 20.7 GiB
    Duration : 1h 13mn
    Overall bit rate : 40.5 Mbps
    Maximum Overall bit rate : 48.0 Mbps
  Video #4113
    ID : 4113 (0x1011)
    Menu ID : 1 (0x1)
    Format : AVC
    Format/Info : Advanced Video Codec
    Format profile : High@L4.1
    Format settings, CABAC : Yes
    Format settings, ReFrames : 2 frames
    Codec ID : 27
    Duration : 1h 13mn
    Bit rate mode : Constant
    Bit rate : 32.0 Mbps
    Width : 1 920 pixels
    Height : 1 080 pixels
    Display aspect ratio : 16:9
    Frame rate : 23.976 fps
    Standard : Component
    Color space : YUV
    Chroma subsampling : 4:2:0
    Bit depth : 8 bits
    Scan type : Progressive
    Bits/(Pixel*Frame) : 0.644
    Stream size : 16.5 GiB (80%)
  Audio #4352
    ID : 4352 (0x1100)
    Menu ID : 1 (0x1)
    Format : PCM
    Format settings, Endianness : Big
    Format settings, Sign : Signed
    Muxing mode : Blu-ray
    Codec ID : 128
    Duration : 1h 13mn
    Bit rate mode : Constant
    Bit rate : 6 144 Kbps
    Channel(s) : 8 channels
    Channel positions : Front: L C R, Side: L R, Back: L R, LFE
    Sampling rate : 48.0 KHz
    Bit depth : 16 bits
    Delay relative to video : -83ms
    Stream size : 3.14 GiB (15%)
  Audio #4353
    ID : 4353 (0x1101)
    Menu ID : 1 (0x1)
    Format : AC-3
    Format/Info : Audio Coding 3
    Mode extension : CM (complete main)
    Codec ID : 129
    Duration : 1h 13mn
    Bit rate mode : Constant
    Bit rate : 448 Kbps
    Channel(s) : 6 channels
    Channel positions : Front: L C R, Side: L R, LFE
    Sampling rate : 48.0 KHz
    Bit depth : 16 bits
    Compression mode : Lossy
    Delay relative to video : -83ms
    Stream size : 234 MiB (1%)
  Text #4608
    ID : 4608 (0x1200)
    Menu ID : 1 (0x1)
    Format : PGS
    Codec ID : 144
  Text #4609
    ID : 4609 (0x1201)
    Menu ID : 1 (0x1)
    Format : PGS
    Codec ID : 144
  Text #4610
    ID : 4610 (0x1202)
    Menu ID : 1 (0x1)
    Format : PGS
    Codec ID : 144

  评论这张
 
阅读(262)| 评论(0)
推荐 转载

历史上的今天

在LOFTER的更多文章

评论

<#--最新日志,群博日志--> <#--推荐日志--> <#--引用记录--> <#--博主推荐--> <#--随机阅读--> <#--首页推荐--> <#--历史上的今天--> <#--被推荐日志--> <#--上一篇,下一篇--> <#-- 热度 --> <#-- 网易新闻广告 --> <#--右边模块结构--> <#--评论模块结构--> <#--引用模块结构--> <#--博主发起的投票-->
 
 
 
 
 
 
 
 
 
 
 
 
 
 

页脚

网易公司版权所有 ©1997-2017