注册 登录  
 加关注
   显示下一条  |  关闭
温馨提示!由于新浪微博认证机制调整,您的新浪微博帐号绑定已过期,请重新绑定!立即重新绑定新浪微博》  |  关闭

逆风飞翔的鸟

追逐风中散落的默契~

 
 
 

日志

 
 
关于我

曾经迷惑于一份距离 曾经感动于一个传说 …… 在仆仆风中 我伸手 抓住你我的缘分 …… “傻傻”的你 能闻到风中 你我的默契吗?!

网易考拉推荐

【亚洲】Shaolin.Girl.2008.少林少女  

2012-02-04 20:57:16|  分类: 亚洲 |  标签: |举报 |字号 订阅

  下载LOFTER 我的照片书  |
【亚洲】Shaolin.Girl.2008.少林少女 - 归鸿 - 归鸿影音

◎译  名 少林少女
◎片  名 Shaolin Girl
◎年  代 2008
◎国  家 日本/中国香港
◎类  别 动作/喜剧
◎语  言 国语
◎IMDB链接 http://www.imdb.com/title/tt1133594
◎片  长 108 min
◎导  演 本广克行 Katsuyuki Motohiro
◎主  演 柴崎幸 Kou Shibasaki .....樱泽凛
       仲村亨 T?ru Nakamura .....大场雄一郎
       江口洋介 Yosuke Eguchi .....岩井拳儿
       张雨绮 Yuqi Zhang .....刘珉珉
       林子聪 Chi Chung Lam .....林
       田启文 Kai Man Tin .....田
       冈村隆史 Takashi Okamura .....田村龙司
 
      
◎简  介

    樱泽凛在中国的武术学校结束了为期三千日的艰苦修行,她即将返回故乡日本。“我要在日本将少林拳发扬光大!”阿凛充满雄心壮志,然而目送着她的背影的老师们却很担心——这个少女身上埋藏着未知的巨大力量,一步走错就会踏入黑暗的邪道。

    回到日本后,阿凛直奔爷爷留下的少林拳道场。不料昔日生气勃勃的道场竟然已经关门大吉,学生们也都各奔东西。阿凛向熟人打听之后,找到了自己的师傅岩井。岩井如今经营着一家中国餐馆,他从身手不凡的武林高手变成了锅碗瓢盆堆里的妙手厨师。得知师傅放弃了少林拳之道后,阿凛大为震惊,她飞奔跑出餐馆,决心凭一己之力重振道场。

    第二天一早,一个女孩来找阿凛。她是中国餐馆里的女服务生刘珉珉,昨天看到阿凛的功夫后对她非常感兴趣,想拉她进女子曲棍球队。阿凛跟着珉珉来到了国际星馆大学女子曲棍球队的活动室,她以所有队员跟她学少林拳为交换条件,加入了球队。

    学长大场雄一郎察觉到了阿凛非凡的斗气,一直追求强敌的他,提出要和阿凛一比高下。热血少女阿凛的战斗刚刚拉开序幕……


◎幕后制作

    日本每年春季的黄金周假期都是电影旺季,许多新片都选择此时上映抢占票房。今年黄金周的大银幕依然精彩纷呈,在接踵出炉的本土新片中,最引人注目的当属号称第一部正宗日产武打片的《少林少女》。

    虽然《少林少女》并没有展开狂轰滥炸式的宣传攻势,但它强大的阵容足以让每一个影迷为之怦然心动。缔造《跳跃大搜查线》神话的制作人龟山千广和香港著名电影人周星驰携手创意,富士电视台金牌导演本广克行执掌导筒,再加上性格美女柴崎幸领衔主演,这几个响当当的名字本身就是影片最好的宣传词。

    从片名上就可以看出些端倪,《少林少女》的灵感其实来源于星爷的经典之作《少林足球》。2002年6月,在香港刷新票房纪录的《少林足球》借世界杯之机登陆日本大银幕。当时,龟山千广也去了看了电影,并对之大加赞赏。他和周星驰聊天时突发奇想,说起希望拍一部女版少林足球,让女孩子来一场轰轰烈烈的体育大格斗。没想到,几年前玩笑似的闲聊竟然变成了现实,龟P和星爷还真凑在一起弄出了这么一部《少林少女》来。

    《少林少女》的故事构架和《少林足球》颇为相似,两部影片都把揉合了功夫的体育竞技作为看点,星爷玩的是足球,而本片的女主人公樱泽凛则玩起了曲棍球。不过,本片并不是换一下主角的性别了事,当故事围绕一个女孩展开时,无论是情节走向还是场景氛围都发生了变化。女孩的出拳抬脚同样凌厉却没有萧杀之气,女孩的执着倔强不仅让人感动还透出一丝可爱的气息。龟山制作人并不打算把樱泽凛塑造成一个英雄,而是希望她能成为千千万万为梦想而打拼的现代人的缩影。同时,他力图让樱泽凛诉说出一种真正的侠义精神——“武功不是打斗的道具,变强也会让人变得温柔。”

    当红明星柴崎幸早在《大逃杀》中就显示出了不凡的身手,去年她主演的奇幻大片《多罗罗》也有不少精彩动作戏,不过,出演实打实的功夫片对她来说还是头一遭。本片正式开拍是在2007年4月,早在2006年,柴崎幸就开始了少林拳的特训。虽说有了一年多的充分准备,但开拍之后依然相当辛苦,肌肉酸痛小磕小碰是家常便饭,据说还差点骨折。除了一身帅气的功夫装、力战群敌的柴崎幸,留着长发一脸大胡子的江口洋介也是不可错过的看点。

    酣畅淋漓的功夫、飒爽可爱的美女、捧腹不断的笑料,《少林少女》绝对是一道有滋有味的娱乐大餐。

 


  General #1
    ID : 1 (0x1)
    Complete name : 00000.m2ts
    Format : BDAV
    Format/Info : Blu-ray Video
    File size : 16.4 GiB
    Duration : 1h 47mn
    Overall bit rate mode : Variable
    Overall bit rate : 21.8 Mbps
    Maximum Overall bit rate : 35.5 Mbps
  Video #4113
    ID : 4113 (0x1011)
    Menu ID : 1 (0x1)
    Format : MPEG Video
    Format version : Version 2
    Format profile : Main@High
    Format settings, BVOP : Yes
    Format settings, Matrix : Custom
    Codec ID : 2
    Duration : 1h 47mn
    Bit rate mode : Variable
    Bit rate : 18.9 Mbps
    Maximum bit rate : 38.0 Mbps
    Width : 1 920 pixels
    Height : 1 080 pixels
    Display aspect ratio : 16:9
    Frame rate : 23.976 fps
    Color space : YUV
    Chroma subsampling : 4:2:0
    Bit depth : 8 bits
    Scan type : Progressive
    Compression mode : Lossy
    Bits/(Pixel*Frame) : 0.380
    Stream size : 14.2 GiB (87%)
  Audio #4352
    ID : 4352 (0x1100)
    Menu ID : 1 (0x1)
    Format : DTS
    Format/Info : Digital Theater Systems
    Format profile : MA / Core
    Muxing mode : Stream extension
    Codec ID : 134
    Duration : 1h 47mn
    Bit rate mode : Variable
    Bit rate : 1 561 Kbps / 1 510 Kbps
    Channel(s) : 6 channels
    Channel positions : Front: L C R, Side: L R, LFE
    Sampling rate : 48.0 KHz
    Bit depth : 16 bits
    Compression mode : Lossless / Lossy
    Language : Japanese
  Audio #4353
    ID : 4353 (0x1101)
    Menu ID : 1 (0x1)
    Format : AC-3
    Format/Info : Audio Coding 3
    Format profile : Dolby Digital
    Mode extension : CM (complete main)
    Codec ID : 129
    Duration : 1h 47mn
    Bit rate mode : Constant
    Bit rate : 448 Kbps
    Channel(s) : 2 channels
    Channel positions : Front: L R
    Sampling rate : 48.0 KHz
    Bit depth : 16 bits
    Compression mode : Lossy
    Stream size : 345 MiB (2%)
    Language : Chinese
  Text #4608
    ID : 4608 (0x1200)
    Menu ID : 1 (0x1)
    Format : PGS
    Codec ID : 144
    Language : Chinese
  Text #4609
    ID : 4609 (0x1201)
    Menu ID : 1 (0x1)
    Format : PGS
    Codec ID : 144
    Language : Chinese
  Text #4610
    ID : 4610 (0x1202)
    Menu ID : 1 (0x1)
    Format : PGS
    Codec ID : 144
    Duration : 1h 47mn
    Language : English

  评论这张
 
阅读(115)| 评论(0)
推荐 转载

历史上的今天

在LOFTER的更多文章

评论

<#--最新日志,群博日志--> <#--推荐日志--> <#--引用记录--> <#--博主推荐--> <#--随机阅读--> <#--首页推荐--> <#--历史上的今天--> <#--被推荐日志--> <#--上一篇,下一篇--> <#-- 热度 --> <#-- 网易新闻广告 --> <#--右边模块结构--> <#--评论模块结构--> <#--引用模块结构--> <#--博主发起的投票-->
 
 
 
 
 
 
 
 
 
 
 
 
 
 

页脚

网易公司版权所有 ©1997-2017