注册 登录  
 加关注
   显示下一条  |  关闭
温馨提示!由于新浪微博认证机制调整,您的新浪微博帐号绑定已过期,请重新绑定!立即重新绑定新浪微博》  |  关闭

逆风飞翔的鸟

追逐风中散落的默契~

 
 
 

日志

 
 
关于我

曾经迷惑于一份距离 曾经感动于一个传说 …… 在仆仆风中 我伸手 抓住你我的缘分 …… “傻傻”的你 能闻到风中 你我的默契吗?!

网易考拉推荐

【动作】Zorro.1975.佐罗  

2012-12-15 17:23:48|  分类: 动作 |  标签: |举报 |字号 订阅

  下载LOFTER 我的照片书  |
【动作】Zorro.1975.佐罗 - 归鸿 - 逆风飞翔的鸟
◎译  名 佐罗
◎片  名 Zorro
◎年  代 1975
◎国  家 意大利 法国
◎类  别 动作 冒险 喜剧 西部
◎语  言 英语
◎字  幕 中文
◎IMDB链接  http://www.7176.com/title/tt0072448
◎制作公司 Mondial Televisione Film [意大利]
      Les Productions Artistes Associés [法国]
◎发行公司 Titanus Distribuzione S.p.a. [意大利] 1975 Italy theatrical
      CBS Television [美国] 1977 USA TV original airing
      Allied Artists Pictures Corporation [美国] 1976 USA dubbed
      Aquarius TV [希腊] 2000 Greece TV/2004 Greece DVD
      Cine Art Pictures [巴西] 2003 Brazil DVD
      Direct Source [美国] USA DVD
      Gemstone Entertainment2002 USA DVD
      Reel Media International [美国] 2004 USA video/2007 USA all media
      Reserva Especial [巴西] 19?? Brazil VHS
      United Artists [德国] 1975 West Germany theatrical
      VCI Home Video [美国] 1998 USA VHS
◎片  长 01:58:18
◎导  演 杜奇奥·泰萨利Duccio Tessari
◎编  剧 Giorgio Arlorio....story and screenplay
◎主  演 阿兰·德龙Alain Delon....Don Diego, the false Miguel de la Serna/El Zorro
      斯坦利·贝克Stanley Baker....Col. Huerta
      Moustache....Sgt. Garcia
      Giampiero Albertini....Brother Francisco
      Raika Juri....Senoria de la Serna as Rajka Jurcec
      Yvan Chiffre....Thug uncredited


◎简  介

    这部由洛乔.蒂萨利执导的影片,讲述在十六世纪中叶,军阀官僚盘据,民不聊生,蒙面的义侠查禄(阿兰.德龙饰)以神出鬼没的姿态为铲除恶霸而努力。蒙面侠查禄的故事在默片及声片时期曾被好莱坞三度搬上银幕,本片亦非欧洲版的第一部,论内容不算新鲜,但演查禄的阿兰.德龙造型潇洒,斯坦利.贝克演强横无理的许尔达上校颇为出色,加上剑斗场面甚多,故导演虽然平凡,但有相当的吸引力。

    佐罗出现在我们的面前是在1979年,黑色的眼罩,黑色的斗篷,像风一样快的骏马,如梦一样迷人的微笑。在佐罗与米盖尔总督之间自如转换的阿兰?德隆向我们展现了一位西方侠客的潇洒和从容。锄强扶弱的主题,引人入胜的情节,若隐若现的爱情,如舞步一样优美的剑法,弗拉门戈风格的音乐,当佐罗用手中那把纤细的剑在上校维尔塔的胸前飞快地画出一个大大的“Z”字的时候,当正义最终战胜邪恶,被解放的人们恋恋不舍地目送着他的背影消失的时候,每个中国人都感到了这部外国武侠片在视觉和心理上带来的巨大的冲击。
  
    对那个时代的中国人来说,佐罗是少年人心中的英雄,中年人眼里的侠客,老年人呼唤的公正的化身,少女睡梦中的白马王子,就像一个百宝箱,几乎每一个人都能从佐罗的身上找到自己想要的东西。于是在那时的胡同里,你会看到十二岁的我一边模仿童自荣的声音大声说着佐罗的台词:“一匹马,关键是要一匹马”、“无声就是默许,是不是,维尔塔上校”,一边挥舞着木剑去杀死想像中邪恶的上校,没有黑眼罩,没有随风飘逸的黑斗篷,没有高头大马,有的是幻想,是崇拜,是适合幻想和崇拜生长的年龄,更重要的是我们有值得崇拜的英雄。
  
    于是,在八十年代中期的某个晚上,当年逾五旬的佐罗扮演者阿兰?德隆在舞台上神情孤傲地唱着法文歌时,你会看到四周骚动着的人群和年轻的中国女孩痴迷的目光、情不自禁的举止,因为英雄总是让空气燃烧起来的导火索,因为被美女思慕是佐罗生来就被上天赋予的使命,哪怕他只是佐罗的化身。
  
    没人知道佐罗究竟生长在哪个年代,也没人知道他是生活在西班牙或者墨西哥亦或加利福尼亚,更没人能说清楚佐罗的真正长相,他可以是阿兰?德隆,也可以是霍普金斯或班德拉斯,但哪里有压迫,哪里有不公,哪里就会有佐罗的身影出现,哪里就有大大的“Z”,行侠仗义,剑过留痕,这“道”即存在于每一个侠客的心中,也存在于我们普通人的梦里。



  General #1
    ID : 1 (0x1)
    Complete name : 00000.m2ts
    Format : BDAV
    Format/Info : Blu-ray Video
    File size : 15.8 GiB
    Duration : 1h 58mn
    Overall bit rate mode : Variable
    Overall bit rate : 19.1 Mbps
    Maximum Overall bit rate : 35.5 Mbps
  Video #4113
    ID : 4113 (0x1011)
    Menu ID : 1 (0x1)
    Format : AVC
    Format/Info : Advanced Video Codec
    Format profile : High@L4.1
    Format settings, CABAC : Yes
    Format settings, ReFrames : 4 frames
    Codec ID : 27
    Duration : 1h 58mn
    Bit rate mode : Variable
    Bit rate : 16.6 Mbps
    Maximum bit rate : 30.0 Mbps
    Width : 1 920 pixels
    Height : 1 080 pixels
    Display aspect ratio : 16:9
    Frame rate : 23.976 fps
    Standard : NTSC
    Color space : YUV
    Chroma subsampling : 4:2:0
    Bit depth : 8 bits
    Scan type : Progressive
    Bits/(Pixel*Frame) : 0.333
    Stream size : 13.7 GiB (87%)
    Color primaries : BT.709
    Transfer characteristics : BT.709
    Matrix coefficients : BT.709
  Audio #4352
    ID : 4352 (0x1100)
    Menu ID : 1 (0x1)
    Format : DTS
    Format/Info : Digital Theater Systems
    Format profile : MA / Core
    Muxing mode : Stream extension
    Codec ID : 134
    Duration : 1h 58mn
    Bit rate mode : Variable
    Bit rate : 1 558 Kbps / 1 510 Kbps
    Channel(s) : 2 channels
    Channel positions : Front: L R
    Sampling rate : 48.0 KHz
    Bit depth : 16 bits
    Compression mode : Lossless / Lossy
    Language : English
  Audio #4353
    ID : 4353 (0x1101)
    Menu ID : 1 (0x1)
    Format : AC-3
    Format/Info : Audio Coding 3
    Mode extension : CM (complete main)
    Format settings, Endianness : Big
    Codec ID : 129
    Duration : 1h 58mn
    Bit rate mode : Constant
    Bit rate : 224 Kbps
    Channel(s) : 2 channels
    Channel positions : Front: L R
    Sampling rate : 48.0 KHz
    Bit depth : 16 bits
    Compression mode : Lossy
    Stream size : 190 MiB (1%)
    Language : Chinese
  Text #4608
    ID : 4608 (0x1200)
    Menu ID : 1 (0x1)
    Format : PGS
    Codec ID : 144
    Delay relative to video : 194ms
    Language : Chinese
  Text #4609
    ID : 4609 (0x1201)
    Menu ID : 1 (0x1)
    Format : PGS
    Codec ID : 144
    Language : Chinese
  评论这张
 
阅读(161)| 评论(0)
推荐 转载

历史上的今天

在LOFTER的更多文章

评论

<#--最新日志,群博日志--> <#--推荐日志--> <#--引用记录--> <#--博主推荐--> <#--随机阅读--> <#--首页推荐--> <#--历史上的今天--> <#--被推荐日志--> <#--上一篇,下一篇--> <#-- 热度 --> <#-- 网易新闻广告 --> <#--右边模块结构--> <#--评论模块结构--> <#--引用模块结构--> <#--博主发起的投票-->
 
 
 
 
 
 
 
 
 
 
 
 
 
 

页脚

网易公司版权所有 ©1997-2017