注册 登录  
 加关注
   显示下一条  |  关闭
温馨提示!由于新浪微博认证机制调整,您的新浪微博帐号绑定已过期,请重新绑定!立即重新绑定新浪微博》  |  关闭

逆风飞翔的鸟

追逐风中散落的默契~

 
 
 

日志

 
 
关于我

曾经迷惑于一份距离 曾经感动于一个传说 …… 在仆仆风中 我伸手 抓住你我的缘分 …… “傻傻”的你 能闻到风中 你我的默契吗?!

网易考拉推荐

【剧情】Harold.and.Kumar.2.Escape.from.Guantanamo.Bay.2008.猪头逛大街2  

2012-12-14 08:03:25|  分类: 剧情 |  标签: |举报 |字号 订阅

  下载LOFTER 我的照片书  |
【剧情】Harold.and.Kumar.2.Escape.from.Guantanamo.Bay.2008.猪头逛大街2 - 归鸿 - 逆风飞翔的鸟
◎译  名 寻堡奇遇2/猪头逛大街2
◎片  名 Harold and Kumar Escape from Guantanamo Bay
◎年  代 2008
◎国  家 美国
◎类  别 冒险/喜剧
◎语  言 英语
◎IMDB链接  http://www.imdb.com/title/tt0481536
◎导  演 乔恩·赫维兹 Jon Hurwitz
      海登·施拉兹伯格 Hayden Schlossberg
◎主  演 卡尔·潘 Kal Penn .....Kumar Patel
      鲍拉·加茜丝 Paula Garcés .....Maria
      尼尔·帕特里克·哈里斯 Neil Patrick Harris .....Neil Patrick Harris
      Christopher Meloni .....Grand Wizard
      大卫·克鲁霍尔特兹 David Krumholtz .....Goldstein
      丹妮尔·哈里斯 Danneel Harris .....Vanessa
      艾迪·凯伊·托马斯 Eddie Kaye Thomas .....Rosenberg
      罗杰·巴特 Roger Bart .....Dr. Beecher
      艾德·赫尔姆斯 Ed Helms .....Interpreter
      Katie Knighten .....Tammi (as Ava Santana)
      Eric Winter .....Colton
      罗伯·考德瑞 Rob Corddry .....Ron Fox
      Adam Herschman .....Archie
      Clyde Kusatsu .....Mr. Lee
      Crystal Mantecon .....Juanita 'Venus' 'Pocahontas'
      Amir Talai .....Raza
      Richard Christy .....Kenny
      Jon Reep .....Raymus
      Jack Conley .....Deputy Frye
      Chris Warner .....State Trooper
      Ted Ferguson .....Wedding Greensman
      Errol Sitahal .....Dr. Patel
      Jason Konopisos .....Fox Goon / Derek Davis
      D'Anthony Palms .....Light Skinned Security Guard
      Juli Erickson .....Old White Woman
      Chuck Vail .....Wedding Groomsman
      Todd Voltz .....Travis
      Carsten H.W. Lorenz .....Carsten
      Josh Heald .....Terry the Air Marshall
      Hugo Perez .....Ramon
      Jackson Beals .....Carter
      Mary Deese .....Mrs. Lee
      Jeremy Ambler .....Airplane Passenger (uncredited)
      Walt Hollis .....Airplane Passenger (uncredited)
      约翰·周 John Cho .....Harold Lee
      James Adomian .....President George W. Bush
      比佛莉·德安姬罗 Beverly D'Angelo .....Brothel Mistress
      Ron Fagan .....Airplane Passenger 2
      Katheryn Ryce .....Agnes
      Echo Valley .....Tits Hemmingway
      Courtney Shay Young .....Jada aka Asia
      米西·派勒 Missi Pyle .....Raylene
      Mark Munoz .....Cyrus
      Chantel Silvain .....Trisha
      Kristen de Nes .....Kim
      Mark Turner .....Joe
      Randal Reeder .....Big Bob
      Kevin Payton .....Random Passenger #1
      Frank Mondaruli .....Head of Security
      Mighty Rasta .....Dr. Jonavon White (as Lester 'Rasta' Speight)
      Colton Gramm .....Groomsman #1
      Patrick Michael Carney .....Goon #1
      Angus Sutherland .....Anton
      Marisa Belinda .....Jacuzzi Girl #1 (as Marisa Rodriquez)
      Claudia Pena .....Jacuzzi Girl #2
      Rob Andrist Plourde .....Random Amsterdam Stoner
      Michael Byrnes .....Lt. Riggs / Goon
      Brooke Devenney .....Blonde Little Girl on Travel Bus (uncredited)
      Alec Rayme .....Terrorist (uncredited)
      Chris Reid .....Passenger on plane (uncredited)


◎简  介 

  那对在美国备受喜爱的好友搭伴又回来了,我们将会在上一集结束的地方再次找到哈罗德·李和卡玛·派特,当他们成功地完成了对“白色城堡”的寻找之后,就返回到自己的公寓中……可是差不多才过了一个小时,哈罗德和卡玛却已经开始为下一次充满历险的旅行收拾行李做准备了,原来哈罗德喜欢的女孩玛丽娅去了阿姆斯特丹,他决定追随而至,想尽一切办法赢得她的欢心。

  在机场,卡玛偶然遇到了他的前女友温妮莎,却惊讶地发现她就要结婚了……卡玛不愧为麻烦之源,这还没上飞机呢,他就和机场的警卫发生了激烈的争吵,差一点误了事。可是即使两人最终成功地登上了开往阿姆斯特丹的飞机,卡玛仍然有办法制造比自己期待中还多的麻烦。由于等不及在飞机上那漫长的6个小时,卡玛跑到厕所里自制了一个“无烟器”--骚乱由此引发,“无烟器”被误认成炸弹,而哈罗德和卡玛则不幸地被当成恐怖分子。

  这场突发事件致使飞机改变了航向,把他们送到了关塔那摩湾的监狱中关了起来……这两个倒霉小子却又总能交上狗屎运,他们来了一场“胜利大逃亡”,成功越狱。从关塔那摩湾跑出来之后,哈罗德和卡玛途经迈阿密抵达德州--温妮莎婚礼的举办地,两人自然还没有好心到专程送来祝福,他们的目的是破坏婚礼。紧随在他们身后的是国家安全局的长官罗恩·福克斯,他要重新抓回这两个高度危险的恐怖分子。

  虽然经历了重重障碍,卡玛却是一如既往地乐在其中,他将再一次挑战哈罗德的友情、忍耐和心智的极限……不过不用担心,不管发生什么事,都不会抹杀他们之间的友情,只会让两个人的关系变得更加紧密。



  General
    Unique ID : 186782671737641456584707915334777663997 (0x8C8508B81AD959A389D2E90B3E9971FD)
    Complete name : Harold.and.Kumar.Escape.from.Guantanamo.Bay.2008.BluRay.720p.x264.DTS.mkv
    Format : Matroska
    Format version : Version 1
    File size : 4.37 GiB
    Duration : 1h 47mn
    Overall bit rate : 5 813 Kbps
    Encoded date : UTC 2008-08-25 06:27:17
    Writing application : mkvmerge v2.2.0 ('Turn It On Again') built on Mar  4 2008 12:58:26
    Writing library : libebml v0.7.7 + libmatroska v0.8.1
  Video #1
    ID : 1
    Format : AVC
    Format/Info : Advanced Video Codec
    Format profile : High@L5.1
    Format settings, CABAC : Yes
    Format settings, ReFrames : 9 frames
    Format settings, GOP : N=1
    Codec ID : V_MPEG4/ISO/AVC
    Duration : 1h 47mn
    Bit rate : 4 300 Kbps
    Width : 1 280 pixels
    Height : 688 pixels
    Display aspect ratio : 1.85:1
    Frame rate mode : Constant
    Frame rate : 23.976 fps
    Color space : YUV
    Chroma subsampling : 4:2:0
    Bit depth : 8 bits
    Scan type : Progressive
    Bits/(Pixel*Frame) : 0.204
    Stream size : 3.15 GiB (72%)
    Writing library : x264 core 61 r938M 9881ffd
    Encoding settings : cabac=1 / ref=9 / deblock=1:-2:-1 / analyse=0x3:0x113 / me=umh / subme=6 / psy_rd=1.0:1.0 / brdo=1 / mixed_ref=1 / me_range=16 / chroma_me=1 / trellis=1 / 8x8dct=1 / cqm=0 / deadzone=21,11 / chroma_qp_offset=-4 / threads=4 / nr=0 / decimate=1 / mbaff=0 / bframes=16 / b_pyramid=1 / b_adapt=1 / b_bias=0 / direct=3 / wpredb=1 / bime=1 / keyint=250 / keyint_min=25 / scenecut=40(pre) / rc=2pass / bitrate=4300 / ratetol=1.0 / rceq='blurCplx^(1-qComp)' / qcomp=1.00 / qpmin=10 / qpmax=51 / qpstep=4 / cplxblur=20.0 / qblur=0.5 / ip_ratio=1.40 / pb_ratio=1.30 / aq=2:1.00
    Language : English
    Default : Yes
    Forced : No
  Audio #2
    ID : 2
    Format : DTS
    Format/Info : Digital Theater Systems
    Codec ID : A_DTS
    Duration : 1h 47mn
    Bit rate mode : Constant
    Bit rate : 1 510 Kbps
    Channel(s) : 6 channels
    Channel positions : Front: L C R, Side: L R, LFE
    Sampling rate : 48.0 KHz
    Bit depth : 24 bits
    Compression mode : Lossy
    Stream size : 1.14 GiB (26%)
    Default : Yes
    Forced : No
  评论这张
 
阅读(168)| 评论(0)
推荐 转载

历史上的今天

评论

<#--最新日志,群博日志--> <#--推荐日志--> <#--引用记录--> <#--博主推荐--> <#--随机阅读--> <#--首页推荐--> <#--历史上的今天--> <#--被推荐日志--> <#--上一篇,下一篇--> <#-- 热度 --> <#-- 网易新闻广告 --> <#--右边模块结构--> <#--评论模块结构--> <#--引用模块结构--> <#--博主发起的投票-->
 
 
 
 
 
 
 
 
 
 
 
 
 
 

页脚

网易公司版权所有 ©1997-2017