注册 登录  
 加关注
   显示下一条  |  关闭
温馨提示!由于新浪微博认证机制调整,您的新浪微博帐号绑定已过期,请重新绑定!立即重新绑定新浪微博》  |  关闭

逆风飞翔的鸟

追逐风中散落的默契~

 
 
 

日志

 
 
关于我

曾经迷惑于一份距离 曾经感动于一个传说 …… 在仆仆风中 我伸手 抓住你我的缘分 …… “傻傻”的你 能闻到风中 你我的默契吗?!

网易考拉推荐

【剧情】Harold.and.Kumar.1.Go.To.White.Castle.2004.猪头逛大街1  

2012-12-14 07:51:06|  分类: 剧情 |  标签: |举报 |字号 订阅

  下载LOFTER 我的照片书  |
【剧情】Harold.and.Kumar.1.Go.To.White.Castle.2004.猪头逛大街1 - 归鸿 - 逆风飞翔的鸟
◎译  名 寻堡奇遇/猪头逛大街/猪头汉堡包
◎片  名 Harold and Kumar Go To White Castle
◎年  代 2004
◎国  家 美国/加拿大/德国
◎类  别 喜剧/冒险
◎语  言 英语
◎IMDB链接  http://www.imdb.com/title/tt0366551/
◎导  演 丹尼·雷纳 Danny Leiner
◎主  演 杰米·肯尼迪 Jamie Kennedy .....Creepy Guy (uncredited)
      约翰·周 John Cho .....Harold Lee
      卡尔·潘 Kal Penn .....Kumar Patel
      艾迪·凯伊·托马斯 Eddie Kaye Thomas .....Rosenberg
      瑞安·雷诺兹 Ryan Reynolds .....Male Nurse
      佛莱德·威拉特 Fred Willard .....Dr. Willoughby
      伊桑·恩布里 Ethan Embry .....Billy Carver
      安东尼·安德森 Anthony Anderson .....Burger Shack Employee
      博伊德·班克斯 Boyd Banks .....E.R. Patient
      鲍拉·加茜丝 Paula Garcés .....Maria
      大卫·克鲁霍尔特兹 David Krumholtz .....Goldstein
      Christopher Meloni .....Freakshow
      Robert Tinkler .....J.D.
      Steve Braun .....Cole
      Dan Bochart .....Extreme Sports Punk #1
      Mike Sheer .....'I'm So High' Kid
      Christopher Thompson .....Don't You Wanna Be Cool Kid
      Angelo Tsarouchas .....Mean Tollbooth Guy (as Angelo Tsachouras)
      Siu Ta .....Cindy Kim
      Bobby Lee .....Kenneth Park
      Dov Tiefenbach .....Bradly Thomas
      Kate Kelton .....Christy
      Brooke D'Orsay .....Clarissa
      Albert Howell .....Security Guard
      Errol Sitahal .....Dr. Patel
      Shaun Majumder .....Saikat Patel
      玛琳·阿克曼 Malin Akerman .....Liane
      路易斯·古兹曼 Luis Guzmán .....Maria's Brother (scenes deleted)
      乔恩·赫维兹 Jon Hurwitz .....Tony (uncredited)
      海登·施拉兹伯格 Hayden Schlossberg .....Hayden (uncredited)
      尼尔·帕特里克·哈里斯 Neil Patrick Harris .....Neil Patrick Harris


◎简  介 

  韩裔美国人哈罗德·李(约翰·周 饰)是一所投资银行的底层的工作人员,工作辛苦薪水却低,他的无赖的同事也经常把那些本应自己完成的工作推给他,这些工作让哈罗德在周末也无法得到喘息的机会。个性内向的他喜欢上了漂亮的邻家女孩玛利亚(宝拉·格瑞丝 饰),但却没有勇气对她表白。

  印裔美国人卡玛(卡尔·潘 饰)出身医学世家,但他却没有遗传到家里人的安静基因,他是一个彻头彻尾的“乐天派”,他喜欢用一切放纵的享乐来逃避现实的压力,虽然家人一直希望他能跟随祖辈的足迹,进入医学院并最终成为一名体面的医生,但他自己却更喜欢在各式各样的派对中享受青春。

  令人奇怪的是,两个性格完全不同的人竟然是一对最要好的朋友,这个星期五夜晚的“寻堡”的故事也就在他们租住的小公寓里开始。两个人都懒散地看着无聊的电视节目,不知道这个可以得到放松的周末要干什么,正在这时,两人被本周电视推荐的商品吸引住了,这就是“白色城堡”(White Castle)快餐连锁店令人垂涎的汉堡包。两个人感觉自己找到了人生的目标(至少是这个周末夜晚的目标)——他们必须立刻出发,穿过几乎整个新泽西州,找寻“白色城堡”连锁店,用一个“白色城堡”汉堡包来满足内心的渴望,弥补生命中的遗憾。

  哈罗德和卡玛开始这次意义重大的寻“堡”奇遇记,在旅程中他们造访了如此多的古怪地方:从大学浴室到激进团体,从刻板的警察学院公会到令人恐惧的未开垦的荒地,从阴暗的速食工厂到他们心中神圣的白色城堡的圣殿;一路上,他们也见识了非常离奇的人物:一个非常讨厌的公子哥儿,一所超市的老板,一个长像酷似电视剧明星的女人,还有演员尼尔·柏德烈·哈里斯,甚至还包括一只暴躁的浣熊和一只逃脱的印度豹子。在这个夜晚,他们共同战胜了许许多多的困难,也领悟到更多友谊和友谊之外的道理……



  General
    Unique ID : 175754051781106634783737555495266875367 (0x8438FFC6261C54AF8836D79A36A0F7E7)
    Complete name : Harold.and.Kumar.Go.To.White.Castle.2004.BluRay.720p.x264.DTS.mkv
    Format : Matroska
    Format version : Version 1
    File size : 4.37 GiB
    Duration : 1h 28mn
    Overall bit rate : 7 084 Kbps
    Encoded date : UTC 2008-08-25 06:30:27
    Writing application : mkvmerge v2.2.0 ('Turn It On Again') built on Mar  4 2008 12:58:26
    Writing library : libebml v0.7.7 + libmatroska v0.8.1
  Video #1
    ID : 1
    Format : AVC
    Format/Info : Advanced Video Codec
    Format profile : High@L5.1
    Format settings, CABAC : Yes
    Format settings, ReFrames : 9 frames
    Codec ID : V_MPEG4/ISO/AVC
    Duration : 1h 28mn
    Bit rate : 5 571 Kbps
    Width : 1 280 pixels
    Height : 688 pixels
    Display aspect ratio : 1.85:1
    Frame rate mode : Constant
    Frame rate : 23.976 fps
    Color space : YUV
    Chroma subsampling : 4:2:0
    Bit depth : 8 bits
    Scan type : Progressive
    Bits/(Pixel*Frame) : 0.264
    Stream size : 3.35 GiB (77%)
    Writing library : x264 core 61 r947M af82aae
    Encoding settings : cabac=1 / ref=9 / deblock=1:-2:-1 / analyse=0x3:0x113 / me=umh / subme=6 / psy_rd=1.0:1.0 / brdo=1 / mixed_ref=1 / me_range=16 / chroma_me=1 / trellis=1 / 8x8dct=1 / cqm=0 / deadzone=21,11 / chroma_qp_offset=-4 / threads=4 / nr=0 / decimate=1 / mbaff=0 / bframes=16 / b_pyramid=1 / b_adapt=1 / b_bias=0 / direct=3 / wpredb=1 / bime=1 / keyint=250 / keyint_min=25 / scenecut=40(pre) / rc=2pass / bitrate=5571 / ratetol=1.0 / rceq='blurCplx^(1-qComp)' / qcomp=1.00 / qpmin=10 / qpmax=51 / qpstep=4 / cplxblur=20.0 / qblur=0.5 / ip_ratio=1.40 / pb_ratio=1.30 / aq=2:1.00
    Language : English
    Default : Yes
    Forced : No
  Audio #2
    ID : 2
    Format : DTS
    Format/Info : Digital Theater Systems
    Format profile : ES
    Codec ID : A_DTS
    Duration : 1h 28mn
    Bit rate mode : Constant
    Bit rate : 1 510 Kbps
    Channel(s) : 6 channels
    Channel positions : Front: L C R, Side: L R, LFE
    Sampling rate : 48.0 KHz
    Bit depth : 24 bits
    Compression mode : Lossy
    Stream size : 954 MiB (21%)
    Default : Yes
    Forced : No
  评论这张
 
阅读(144)| 评论(0)
推荐 转载

历史上的今天

在LOFTER的更多文章

评论

<#--最新日志,群博日志--> <#--推荐日志--> <#--引用记录--> <#--博主推荐--> <#--随机阅读--> <#--首页推荐--> <#--历史上的今天--> <#--被推荐日志--> <#--上一篇,下一篇--> <#-- 热度 --> <#-- 网易新闻广告 --> <#--右边模块结构--> <#--评论模块结构--> <#--引用模块结构--> <#--博主发起的投票-->
 
 
 
 
 
 
 
 
 
 
 
 
 
 

页脚

网易公司版权所有 ©1997-2017