注册 登录  
 加关注
   显示下一条  |  关闭
温馨提示!由于新浪微博认证机制调整,您的新浪微博帐号绑定已过期,请重新绑定!立即重新绑定新浪微博》  |  关闭

逆风飞翔的鸟

追逐风中散落的默契~

 
 
 

日志

 
 
关于我

曾经迷惑于一份距离 曾经感动于一个传说 …… 在仆仆风中 我伸手 抓住你我的缘分 …… “傻傻”的你 能闻到风中 你我的默契吗?!

网易考拉推荐

【亚洲】The.Heroic.Ones.1970.十三太保  

2012-11-09 20:53:31|  分类: 亚洲 |  标签: |举报 |字号 订阅

  下载LOFTER 我的照片书  |
【亚洲】The.Heroic.Ones.1970.十三太保 - 归鸿 - 逆风飞翔的鸟
中文名称:十三太保
英文名称:The Heroic Ones
对白语言:国语
字  幕:中文
影片题材:武侠
片  长:121分钟
国家/地区:中国香港
IMDB链接:http://www.imdb.com/title/tt0070684/
上映日期:1970年8月14日
票  房:HK $1,395,311.00

导演 Director:
张彻 Cheh Chang

编剧 Writer:
张彻 Cheh Chang
倪匡 Kuang Ni

演员 Actor:
姜大卫 David Chiang  ....Li Tsun Xiao
狄龙 Lung Ti  ....Shih Ching Szu
谷峰 Feng Ku  ....King
王钟 Chung Wang  ....Kang Chun Li
李丽丽 Lily Li  ....Tsui Yen
南宫勋 James Nam  ....Li Tsun Hsin
芦苇 Wai Lo  ....Li Ysun Shiu
刘家荣 Chia Yung Liu  ....Li Tsun Shou
黄培基 Pei Chi Huang  ....Li Tsun Chin
金汉 Han Chin  ....Li Szu Yuan
陈全 Chuen Chan  ....Li Sun Shen
鲍嘉文 Chia Win Pao  ....Li Szu Chao
刘刚 Kang Liu  ....Li Tsun Chih
杨斯 Bolo Yeung  ....General Meng Chieh Hui
郑康业 Hong-Yip Cheng
郑雷 Lei Cheng
陈星 Sing Chen
周小来 Siu Loi Chow
冯克安 Hak On Fung
何柏光 Pak-Kwong Ho
徐虾 Hsia Hsu
古龙 Cliff Lok
唐炎灿 Yim Chan Tang
曾楚霖 Choh Lam Tsang
王青 Ching Wong
郝履仁 Ho Lee Yan
袁祥仁 Cheung-Yan Yuen
袁信义 Shun-Yee Yuen
袁和平 Woo-ping Yuen
任世官 Yee Kwan Yan
王光裕 Kuang Yu Wang  ....Li Tsun Chang
何宝星 Bo Sing Ho
伍元勋 Yuen Fan Ng
陈醒棠 Seng Tong Chan
陈楼 Lau Chan
周润坚 Yun Kin Chow
梁尚云 Shang Yun Liang
齐琳 Lin Chai
关仁 Yan Kwan
染野行雄 Yukio Someno
万里 Li Wan
戚毅雄 Ngai Hung Chik
邓德祥 Te Hsiang Teng
张作舟 Cheung Chok Chow
金军 Chun Chin
朱今 Chin Chu
李海龙 Hoi Lung Lee
罗强 Keung Law
谭宝 Bo Tam
董财宝 Choi Bo Tung
吴池钦 Chi Chin Wu
黄哈 Ha Huang

简介:

    唐朝末年,沙陀国主李克用有十三义子,皆获太保衔(按:太保是官名但无实职)。十三太保李存孝(姜大卫),十一太保史敬思 (狄龙)本为战场精英。却在梁王挑拨离间下,其中两个太保因妒忌十三,与外串通演变成兄弟互相残杀。而十三太保更惨遭五马分尸,史亦战死。本是好兄弟,到头竟然落得如此……



  General #1
    ID : 1 (0x1)
    Complete name : 00000.m2ts
    Format : BDAV
    Format/Info : Blu-ray Video
    File size : 19.3 GiB
    Duration : 2h 1mn
    Overall bit rate mode : Variable
    Overall bit rate : 22.8 Mbps
    Maximum Overall bit rate : 35.5 Mbps
  Video #4113
    ID : 4113 (0x1011)
    Menu ID : 1 (0x1)
    Format : AVC
    Format/Info : Advanced Video Codec
    Format profile : High@L4.1
    Format settings, CABAC : Yes
    Format settings, ReFrames : 4 frames
    Codec ID : 27
    Duration : 2h 1mn
    Bit rate mode : Variable
    Bit rate : 20.3 Mbps
    Maximum bit rate : 38.0 Mbps
    Width : 1 920 pixels
    Height : 1 080 pixels
    Display aspect ratio : 16:9
    Frame rate : 29.970 fps
    Standard : NTSC
    Color space : YUV
    Chroma subsampling : 4:2:0
    Bit depth : 8 bits
    Scan type : MBAFF
    Bits/(Pixel*Frame) : 0.327
    Stream size : 17.2 GiB (89%)
    Color primaries : BT.709
    Transfer characteristics : BT.709
    Matrix coefficients : BT.709
  Audio #4352
    ID : 4352 (0x1100)
    Menu ID : 1 (0x1)
    Format : PCM
    Format settings, Endianness : Big
    Format settings, Sign : Signed
    Muxing mode : Blu-ray
    Codec ID : 128
    Duration : 2h 1mn
    Bit rate mode : Constant
    Bit rate : 1 536 Kbps
    Channel(s) : 2 channels
    Channel positions : Front: L R
    Sampling rate : 48.0 KHz
    Bit depth : 16 bits
    Stream size : 1.30 GiB (7%)
    Language : Chinese
  Text #4608
    ID : 4608 (0x1200)
    Menu ID : 1 (0x1)
    Format : PGS
    Codec ID : 144
    Language : Chinese
  Text #4609
    ID : 4609 (0x1201)
    Menu ID : 1 (0x1)
    Format : PGS
    Codec ID : 144
    Language : English
  评论这张
 
阅读(119)| 评论(0)
推荐 转载

历史上的今天

在LOFTER的更多文章

评论

<#--最新日志,群博日志--> <#--推荐日志--> <#--引用记录--> <#--博主推荐--> <#--随机阅读--> <#--首页推荐--> <#--历史上的今天--> <#--被推荐日志--> <#--上一篇,下一篇--> <#-- 热度 --> <#-- 网易新闻广告 --> <#--右边模块结构--> <#--评论模块结构--> <#--引用模块结构--> <#--博主发起的投票-->
 
 
 
 
 
 
 
 
 
 
 
 
 
 

页脚

网易公司版权所有 ©1997-2017