注册 登录  
 加关注
   显示下一条  |  关闭
温馨提示!由于新浪微博认证机制调整,您的新浪微博帐号绑定已过期,请重新绑定!立即重新绑定新浪微博》  |  关闭

逆风飞翔的鸟

追逐风中散落的默契~

 
 
 

日志

 
 
关于我

曾经迷惑于一份距离 曾经感动于一个传说 …… 在仆仆风中 我伸手 抓住你我的缘分 …… “傻傻”的你 能闻到风中 你我的默契吗?!

网易考拉推荐

【剧情】Prayers.for.Bobby.2009.天佑鲍比  

2012-11-09 20:34:44|  分类: 剧情 |  标签: |举报 |字号 订阅

  下载LOFTER 我的照片书  |
【剧情】Prayers.for.Bobby.2009.天佑鲍比 - 归鸿 - 逆风飞翔的鸟
◎片   名 Prayers for Bobby
◎译   名 天佑鲍比/为鲍比的祈祷/为巴比祈祷(台)
◎年   代 1958
◎国   家 瑞典
◎类   别 剧情/家庭/传记
◎IMDB 链接 http://www.imdb.com/title/tt1073510/
◎语   言 英语
◎字   幕 中文
◎片   长 89 mins 31 seconds
◎导   演 拉塞尔·马尔卡希 Russell Mulcahy
◎主   演 西格妮·韦弗 Sigourney Weaver  ....Mary Griffith
       瑞恩·凯利 Ryan Kelley  ....Bobby Griffith
       丹·巴特勒 Dan Butler
       亨利·科泽尼 Henry Czerny  ....Robert Griffith
       奥斯汀·尼可斯 Austin Nichols  ....Ed Griffith
       卡莉·许洛德 Carly Schroeder  ....Joy Griffith
       Shannon Eagen  ....Nancy Griffith
       斯科特·贝利 Scott Bailey  ....David
       Anna Badalamenti  ....Michelle
       Ele Bardha  ....Doug
       Linda Boston  ....Marge
       David G.B. Brown  ....PFLAG Member
       Kyle Clarington  ....Protestor
       Rusty Daugherty  ....Boy on Bus
       Bryan Endress-Fox  ....Greg (as Bryan Endress-Fox)
       William C. Fox  ....City Council Member
       Axel Harney  ....Parishoner
       Chris Hendricks  ....Ardie
       Steve Jasgur  ....Citizen
       Patrick Michael Kenney  ....Guy in bar
       Sam Khaleghi  ....(as Sam Logan Khaleghi)
       Madge Levinson  ....Ophelia
       Tevis R. Marcum  ....Protester
       Brent Mata  ....Man at Bar
       Marshall McClean  ....Reverend Owens
       Alyssa McMillan  ....Protester
       Rusty Mewha  ....Reverend Michaels
       Rebecca Louise Miller  ....Jeanette
       Julia Mogerman  ....Teri
       Anthony Moscato  ....Protester
       Jaime Moyer  ....LizSusan Ruttan
       Amanda Ryskamp  ....Audrey
       Sean Scarlett  ....Young Hipster
       Lauren Mae Shafer  ....Girl on Bus
       Dan Wells  ....Rev Hassler
       Billy Whitehouse  ....City Councilman
       Melanie Wilson  ....Margaret
       Dennis Budziszewski  ....Diner / Mourner / Parade onlooker (uncredited)
       Ray Daniel Rogers  ....Bar Patron (uncredited)
       Grace Anne Rowan  ....Protester (uncredited)
       Hadas Corey  ....Cheryl
       Sonja Crosby  ....Celeste
       Jeff Fryer  ....Bar Star
       Amber Gale  ....Jill
       Andrew Kruczynski  ....Football Player-'Gorgeous Guy'
       Janice O'Neill  ....Jackie Costa
       Spencer Perrenoud  ....Teen on Mailbox
       Marty Bufalini  ....City Council President (uncredited)
       Penny Gibbs  ....Mourner / Parade Goer (uncredited)
       Mike HaberEd Kelly  ....Minister
       Jim Porterfield  ....Trucker
       Kyle Colton  ....Parade Attendee


◎简   介

    本片根据真人真事改编。

  Bobby是一个善良、温顺、虔诚的少年,他有爱他的父母奶奶和哥哥妹妹。然而在他向家人坦白自己有同性恋倾向后,一切改变了。 Bobby的母亲Mary深信圣经关于同性恋会下地狱的训诫,想尽办法矫正儿子,却没有意识到Bobby的痛苦与日俱增。在满20岁生日前,Bobby认识了开朗青年David,然而Mary拒绝接受这段感情,她望着Bobby一字一句的说:我不要有一个同性恋儿子。Bobby伤心的离开家,开车到高速路的桥头,噙着泪水纵身跳下...

  Bobby的死彻底唤醒了他的家人。Mary在无尽的悔恨中开始接触同性恋人群,参加PFLAG小组,与神职人员探讨圣经解释。在翻阅儿子的日记后,她终于发现,其实她一直都知道自己的儿子与众不同,只是她不肯正对。失去儿子的母亲在倾盆大雨中失声痛哭,雨水和泪水将固执、偏见和不理解洗刷得一干二净。

  Mary此后将毕生投入到同志维权事业中。她在推动市议会同志自由日提案时留下名句:"当你们在家中、教堂说出阿门时,想想和记得,有个孩子在倾听。"就如一道永恒阳光,照亮了无数困惑、绝望和渴求认同的同志青少年。

  本片母亲Mary的扮演者是曾凭借《异形》(Alien)系列闻名的Sigourney Weaver。此次她朴实无华的演出,将一位普通美国母面对自己同志儿子的心路历程刻画得入木三分。而饰演Bobby的Ryan Kelley是美国童星出身,儿时曾出演电视版《超人前传》,此次他传神的塑造了一个善良、正直、不惜以死向世俗抗争的同志少年。另外需要一提的是导演Russell Mulcahy正是执导了《同志亦凡人》第1季的那位导演,本片实在是和qafonline有不解之缘。

  上帝创造我们,就该爱我们本来的样子。朋友,希望你们坚定去爱。



  General #1
    ID : 1 (0x1)
    Complete name : 00000.m2ts
    Format : BDAV
    Format/Info : Blu-ray Video
    File size : 17.5 GiB
    Duration : 1h 29mn
    Overall bit rate mode : Variable
    Overall bit rate : 28.0 Mbps
    Maximum Overall bit rate : 35.5 Mbps
  Video #4113
    ID : 4113 (0x1011)
    Menu ID : 1 (0x1)
    Format : AVC
    Format/Info : Advanced Video Codec
    Format profile : High@L4.1
    Format settings, CABAC : Yes
    Format settings, ReFrames : 3 frames
    Codec ID : 27
    Duration : 1h 29mn
    Bit rate mode : Variable
    Bit rate : 26.2 Mbps
    Maximum bit rate : 39.0 Mbps
    Width : 1 920 pixels
    Height : 1 080 pixels
    Display aspect ratio : 16:9
    Frame rate : 23.976 fps
    Color space : YUV
    Chroma subsampling : 4:2:0
    Bit depth : 8 bits
    Scan type : Progressive
    Bits/(Pixel*Frame) : 0.527
    Stream size : 16.4 GiB (94%)
    Color primaries : BT.709
    Transfer characteristics : BT.709
    Matrix coefficients : BT.709
  Audio #4352
    ID : 4352 (0x1100)
    Menu ID : 1 (0x1)
    Format : AC-3
    Format/Info : Audio Coding 3
    Mode extension : CM (complete main)
    Format settings, Endianness : Big
    Codec ID : 129
    Duration : 1h 29mn
    Bit rate mode : Constant
    Bit rate : 640 Kbps
    Channel(s) : 6 channels
    Channel positions : Front: L C R, Side: L R, LFE
    Sampling rate : 48.0 KHz
    Bit depth : 16 bits
    Compression mode : Lossy
    Stream size : 410 MiB (2%)
    Language : English
  Text #4608
    ID : 4608 (0x1200)
    Menu ID : 1 (0x1)
    Format : PGS
    Codec ID : 144
    Language : Chinese
  Text #4609
    ID : 4609 (0x1201)
    Menu ID : 1 (0x1)
    Format : PGS
    Codec ID : 144
    Language : Chinese
  Text #4610
    ID : 4610 (0x1202)
    Menu ID : 1 (0x1)
    Format : PGS
    Codec ID : 144
    Delay relative to video : 4s 379ms
    Language : German
  评论这张
 
阅读(125)| 评论(0)
推荐 转载

历史上的今天

在LOFTER的更多文章

评论

<#--最新日志,群博日志--> <#--推荐日志--> <#--引用记录--> <#--博主推荐--> <#--随机阅读--> <#--首页推荐--> <#--历史上的今天--> <#--被推荐日志--> <#--上一篇,下一篇--> <#-- 热度 --> <#-- 网易新闻广告 --> <#--右边模块结构--> <#--评论模块结构--> <#--引用模块结构--> <#--博主发起的投票-->
 
 
 
 
 
 
 
 
 
 
 
 
 
 

页脚

网易公司版权所有 ©1997-2017