注册 登录  
 加关注
   显示下一条  |  关闭
温馨提示!由于新浪微博认证机制调整,您的新浪微博帐号绑定已过期,请重新绑定!立即重新绑定新浪微博》  |  关闭

逆风飞翔的鸟

追逐风中散落的默契~

 
 
 

日志

 
 
关于我

曾经迷惑于一份距离 曾经感动于一个传说 …… 在仆仆风中 我伸手 抓住你我的缘分 …… “傻傻”的你 能闻到风中 你我的默契吗?!

网易考拉推荐

【亚洲】Magadheera.2009.勇士  

2012-01-04 14:28:58|  分类: 亚洲 |  标签: |举报 |字号 订阅

  下载LOFTER 我的照片书  |
【亚洲】Magadheera.2009.勇士 - 归鸿 - 归鸿影音

◎译  名 勇士
◎片  名 Magadheera
◎年  代 2009 年
◎国  家 印度
◎类  别 动作/剧情/爱情
◎语  言 泰卢固语
◎IMDB链接  http://www.imdb.com/title/tt1447500
◎片  长 2h 44mn 29s
◎导  演 S.S. Rajamouli
◎主  演 Ram Charan Teja ... Kala Bhairava
      Kajal Agarwal ... Mitravinda / Indu
      Dev Gill ... Ranadev Bhilla / Raghubeer
      Srihari ... Sher Khan & Solomon
      Sarathbabu ... Vikram Singh Maharaj
      Suneel
      Brahmanandam
      Surya ... Bhupathi Varma - Indu's father
      Hema ...
      Rao Ramesh ... Aghora
      Subbaraya Sarma ... Gurudevulu
      Chiranjeevi ... Special appearance
      Mumait Khan ... Special Appearance
      Kim Sharma ... Special appearance


◎简  介 

  男女主角是公元1609年某个王国中相爱的公主以及第一勇士,但因情敌阻碍,这一辈子没有结合,情敌因爱生恨最后杀了公主,勇士也跟着坠岩殉情,400年后,大家都轮回,勇士成了赛车手,再遇爱人,这一辈子,他能够挽回即将重演的悲剧吗?

  400年后,轮回,勇士成了赛车手,在赶去曼谷参加赛车手比赛时,乘坐三轮车的他在雨中朦朦胧胧瞧见了一个拦车的女孩茵杜,伸出车外的手不经意间触到了女孩的手,触电的感觉,紫色的电流中,数百年的时光在电流中悠悠而过,蓝天沙漠,奔驰的骏马,美丽的公主,无数纷沓而至的画面中,有两只始终无法相触的手,苍凉而凄美,怅惘哀伤,赛车手不顾一切地下车,在雨中狂奔,茫茫人海中他已经认不出她的脸。那是怎样的情感,即使不知道她的相貌,身世,性格,品行,却依然可以深爱……


◎影评/花絮 

·场面很宏大,飞狮、天尊、神庙既有古老的神秘气息,又有着富丽堂皇的皇家风范,当然,还有着梦幻般的甜蜜。   

·结构很绚丽,倒叙、插叙交织融会,穿越古今,令人今目不暇接,流连忘返。   

·特技 揉合了《斯巴达300勇士》的血腥杀戮、《极限特工》的飞车极限、《大篷车》的曼妙歌舞。   

·当然,电影还是有很多瑕疵,善恶的斗争过于简单,某些细节还不经推敲。然瑕不掩瑜。   

·柏拉瓦苦苦寻找茵杜的那一段,音乐欢快、调皮,舞蹈明丽活泼,初恋的慌乱与甜蜜表达得淋漓尽致

·刚开始看的时候对那个男主角印象实在不咋的,脸黑胡子不刮,头发蓬乱,像是小混混。后来越看越顺眼,突然想到好像泰米尔电影都是不刮胡子的,实在很好奇南印度的审美趣味。

·PS.《三个傻瓜》要翻拍南印度版,海报就是三个胡子拉碴的“灰人”

·话说审美趣味,我觉得南印度电影不如北印度,就是因为审美趣味不怎么高,电影硬伤很多。有些镜头拍的很唯美,摄影技术和计算机效果比较出色,但是有几个镜头实在就是败笔,感觉就是一群山泡(不过南印度阿三也算有进步了)。

·看完以后我还有一个感觉,就是南印度的技术与资本很到位,但是审美趣味跟不上技术与资本投资,就像是一个水货的厨师使用很好食材,本来可以做满汉全席,做出来却是农家小菜。

·这种电影不能带脑子去看,否则全都是毙命的逻辑陷阱。PS.如果你嫌自己智商高,就应该多看看这种电影,有利于降低智商。

·极为罕见的是,电影竟然使用了微型摄像头进行拍摄,暴汗⊙﹏⊙,部分画面效果清晰度明显不同。我猜测这个初出茅庐的导演不会处理现场,怕把其他摄像机拍进去,所以在墙面内植入微型摄像机。

·昏黄的黄沙、加上辣妹和帅哥,中间的一部分确实挺有吸引力的,不容错过。

·据说这是南印度收入第二的电影!

 

  General #1
    ID : 1 (0x1)
    Complete name : 00000.m2ts
    Format : BDAV
    Format/Info : Blu-ray Video
    File size : 41.8 GiB
    Duration : 2h 44mn
    Overall bit rate mode : Variable
    Overall bit rate : 36.4 Mbps
    Maximum Overall bit rate : 35.5 Mbps
  Video #4113
    ID : 4113 (0x1011)
    Menu ID : 1 (0x1)
    Format : AVC
    Format/Info : Advanced Video Codec
    Format profile : High@L4.1
    Format settings, CABAC : Yes
    Format settings, ReFrames : 4 frames
    Codec ID : 27
    Duration : 2h 44mn
    Bit rate mode : Variable
    Bit rate : 28.0 Mbps
    Maximum bit rate : 35.0 Mbps
    Width : 1 920 pixels
    Height : 1 080 pixels
    Display aspect ratio : 16:9
    Frame rate : 24.000 fps
    Color space : YUV
    Chroma subsampling : 4:2:0
    Bit depth : 8 bits
    Scan type : Progressive
    Bits/(Pixel*Frame) : 0.563
    Stream size : 32.2 GiB (77%)
    Color primaries : BT.709-5, BT.1361, IEC 61966-2-4, SMPTE RP177
    Transfer characteristics : BT.709-5, BT.1361
    Matrix coefficients : BT.709-5, BT.1361, IEC 61966-2-4 709, SMPTE RP177
  Audio #4352
    ID : 4352 (0x1100)
    Menu ID : 1 (0x1)
    Format : PCM
    Format settings, Endianness : Big
    Format settings, Sign : Signed
    Muxing mode : Blu-ray
    Codec ID : 128
    Duration : 2h 44mn
    Bit rate mode : Constant
    Bit rate : 6 912 Kbps
    Channel(s) : 6 channels
    Channel positions : Front: L C R, Side: L R, LFE
    Sampling rate : 48.0 KHz
    Bit depth : 24 bits
    Stream size : 7.94 GiB (19%)
    Language : Telugu

  评论这张
 
阅读(247)| 评论(0)
推荐 转载

历史上的今天

在LOFTER的更多文章

评论

<#--最新日志,群博日志--> <#--推荐日志--> <#--引用记录--> <#--博主推荐--> <#--随机阅读--> <#--首页推荐--> <#--历史上的今天--> <#--被推荐日志--> <#--上一篇,下一篇--> <#-- 热度 --> <#-- 网易新闻广告 --> <#--右边模块结构--> <#--评论模块结构--> <#--引用模块结构--> <#--博主发起的投票-->
 
 
 
 
 
 
 
 
 
 
 
 
 
 

页脚

网易公司版权所有 ©1997-2017