注册 登录  
 加关注
   显示下一条  |  关闭
温馨提示!由于新浪微博认证机制调整,您的新浪微博帐号绑定已过期,请重新绑定!立即重新绑定新浪微博》  |  关闭

逆风飞翔的鸟

追逐风中散落的默契~

 
 
 

日志

 
 
关于我

曾经迷惑于一份距离 曾经感动于一个传说 …… 在仆仆风中 我伸手 抓住你我的缘分 …… “傻傻”的你 能闻到风中 你我的默契吗?!

网易考拉推荐

【亚洲】I.love.wing.chun.2011.笑咏春  

2012-01-31 22:39:02|  分类: 亚洲 |  标签: |举报 |字号 订阅

  下载LOFTER 我的照片书  |
【亚洲】I.love.wing.chun.2011.笑咏春 - 归鸿 - 归鸿影音

◎译  名 笑咏春
◎片  名 I Love Wing Chun
◎年  代 2011
◎地  区 香港
◎类  别 喜剧/运动
◎语  言 国粤双语
◎片  长 101 mins 36 seconds
◎导  演 蔡力
◎主  演 田亮
       颜微恩
       元华
       元秋
       陈百祥
       黎明
       王翠玲
 

◎简  介 
 
  本故事是由三位从小玩大的好朋友,一个武痴,一个老千及一个富商,三人虽有如生死之交,但各人性格际遇都不同,导致今日一班后背的误解,发生这过搅笑的故事。三位好朋友-富豪(陈百祥)、武痴(元华)和老千(张家华)。老千在临死之际,以自身为傲的诈骗技能秘密作为交换条件,希望功夫大师好好照顾和保护他的儿子,再拜托富豪商人给予他儿子金钱上的资助直到儿子18岁长大成人,作为报答。多年以后,富豪洪爷召开家庭会议,要求他的家庭律师到一个小村庄把阿水(田亮)给带回城市。顿时家里所有的人都感到惊讶,并且开始怀疑阿水和洪爷之间的关系。阿水自幼由一对乡间夫妇抚养,在宁静的小村庄里长大。从小春伯就教阿水功夫,可是从来都没有告诉过阿水他所教的便是咏春拳法。然而,从开始的一连串误解,误会以及意想不到的种种事故,让这趟把阿水带回来城市如此简单的任务顿时变成一场热闹、欢乐的咏春武打搞笑之旅!

 

  General #1
    ID : 1 (0x1)
    Complete name : 00000.m2ts
    Format : BDAV
    Format/Info : Blu-ray Video
    File size : 19.1 GiB
    Duration : 1h 41mn
    Overall bit rate mode : Variable
    Overall bit rate : 26.9 Mbps
    Maximum Overall bit rate : 35.5 Mbps
  Video #4113
    ID : 4113 (0x1011)
    Menu ID : 1 (0x1)
    Format : AVC
    Format/Info : Advanced Video Codec
    Format profile : High@L4.1
    Format settings, CABAC : Yes
    Format settings, ReFrames : 4 frames
    Codec ID : 27
    Duration : 1h 41mn
    Bit rate mode : Variable
    Bit rate : 22.8 Mbps
    Maximum bit rate : 28.0 Mbps
    Width : 1 920 pixels
    Height : 1 080 pixels
    Display aspect ratio : 16:9
    Frame rate : 24.000 fps
    Standard : NTSC
    Color space : YUV
    Chroma subsampling : 4:2:0
    Bit depth : 8 bits
    Scan type : Progressive
    Bits/(Pixel*Frame) : 0.459
    Stream size : 16.2 GiB (85%)
    Color primaries : BT.709-5, BT.1361, IEC 61966-2-4, SMPTE RP177
    Transfer characteristics : BT.709-5, BT.1361
    Matrix coefficients : BT.709-5, BT.1361, IEC 61966-2-4 709, SMPTE RP177
  Audio #4352
    ID : 4352 (0x1100)
    Menu ID : 1 (0x1)
    Format : DTS
    Format/Info : Digital Theater Systems
    Format profile : MA / Core
    Muxing mode : Stream extension
    Codec ID : 134
    Duration : 1h 41mn
    Bit rate mode : Variable
    Bit rate : 2 380 Kbps / 1 510 Kbps
    Channel(s) : 8 channels / 6 channels
    Channel positions : Front: L C R, Side: L R, Back: L R, LFE / Front: L C R, Side: L R, LFE
    Sampling rate : 48.0 KHz
    Bit depth : 16 bits
    Compression mode : Lossless / Lossy
    Language : Chinese
  Audio #4353
    ID : 4353 (0x1101)
    Menu ID : 1 (0x1)
    Format : AC-3
    Format/Info : Audio Coding 3
    Mode extension : CM (complete main)
    Codec ID : 129
    Duration : 1h 41mn
    Bit rate mode : Constant
    Bit rate : 640 Kbps
    Channel(s) : 6 channels
    Channel positions : Front: L C R, Side: L R, LFE
    Sampling rate : 48.0 KHz
    Bit depth : 16 bits
    Compression mode : Lossy
    Stream size : 465 MiB (2%)
    Language : Chinese

  评论这张
 
阅读(101)| 评论(0)
推荐 转载

历史上的今天

在LOFTER的更多文章

评论

<#--最新日志,群博日志--> <#--推荐日志--> <#--引用记录--> <#--博主推荐--> <#--随机阅读--> <#--首页推荐--> <#--历史上的今天--> <#--被推荐日志--> <#--上一篇,下一篇--> <#-- 热度 --> <#-- 网易新闻广告 --> <#--右边模块结构--> <#--评论模块结构--> <#--引用模块结构--> <#--博主发起的投票-->
 
 
 
 
 
 
 
 
 
 
 
 
 
 

页脚

网易公司版权所有 ©1997-2017