注册 登录  
 加关注
   显示下一条  |  关闭
温馨提示!由于新浪微博认证机制调整,您的新浪微博帐号绑定已过期,请重新绑定!立即重新绑定新浪微博》  |  关闭

逆风飞翔的鸟

追逐风中散落的默契~

 
 
 

日志

 
 
关于我

曾经迷惑于一份距离 曾经感动于一个传说 …… 在仆仆风中 我伸手 抓住你我的缘分 …… “傻傻”的你 能闻到风中 你我的默契吗?!

网易考拉推荐

【亚洲】All.About.My.Dog.2005.老友狗狗  

2012-01-31 22:25:56|  分类: 亚洲 |  标签: |举报 |字号 订阅

  下载LOFTER 我的照片书  |
【亚洲】All.About.My.Dog.2005.老友狗狗 - 归鸿 - 归鸿影音

◎译  名 狗狗心事/老友狗狗
◎片  名 All About My Dog
◎年  代 2005
◎国  家 日本
◎类  别 剧情/家庭
◎IMDB链接  http://www.imdb.com/title/tt0475974/
◎语  言 日语/粤语
◎字  幕  中文
◎片  长 87 mins 35 seconds
◎导  演 黑田昌郎 Yoshio Kuroda
       犬童一心 Isshin Inudou
       黑田秀树 Hideki Kuroda
       佐藤信介 Shinsuke Sato
       真田敦 Atsushi Sanada
       永井聪 Akira Nagai
       祢津哲久 Tetsuhisa NezuHideki KurodaSatoshi NagaiTetsuhisa Yazu
◎主  演 中村狮童 Shido Nakamura  ....山田贤太郎
       伊东美咲 Misaki Ito  ....白鸟美咲
       天海佑希 Yuki Amami  ....美春
       小西真奈美 Manami Konishi  ....香织
       乙叶 Otoha  ....知美
       宫崎葵 Aoi Miyazaki  ....美香
       佐藤隆太 Ryuta Sato  ....克彦
       渡边绘理 Eriko Watanabe
       佐野史郎 Shir? Sano
       吉川日奈 Hinano Yoshikawa
       高桥克实 Katsumi Takahashi  ....小野田
       北村总一朗 Soichiro Kitamura
       户田惠子 Keiko Toda
       川平慈英 Jiei Kabira  ....正夫
       荒川良良 Yoshiyoshi Arakawa
       田中要次 Y?ji Tanaka  ....丸山健太郎
       木村多江 Tae Kimura  ....香织的母亲
       清水美那 Mina Shimizu  ....护士
       松冈璃奈子 Rinako Matsuoka  ....护士
       菅野莉央 Rio Kanno
       江口德子 Noriko Eguchi
       Randy Goins  ....Interviewer
       Jiei Kabira
       菊里光 Hikaru Kikuzato  ....Aoi
       大桥望美 Nozomi Ohashi  ....Mika
 

◎简    介
 
  田野一郎小时候十分疼爱家里的柴犬-次郎,不过在次郎车祸丧生后,伤心不已的一郎拒绝拒绝再养狗。妻子美里某天突然带回一只拉不拉多,理由是朋友出国需要帮忙照顾,自己会负责喂食遛狗,坚持把狗狗留下,并取名为Lucky。Lucky每天总是静静地待在家里,默默陪伴着一郎工作,慢慢地让一郎敞开心扉。不幸的,一郎猝然病倒,仅剩下Lucky…
 

◎幕后制作
 
  《狗狗心事》是一部讲述宠物狗和主人之间感情故事的电影,影片以一只名叫波子的东瀛柴犬与人类的友情作为主轴,同时又安排其他狗狗们彼此倾诉内心的情感,电影以拼盘的方式分段描述了人与狗狗之间感人至深的故事。《狗狗心事》在香港曾取得1400万港元的票房。
 
  《狗狗心事》是继《导盲犬小Q》和《南极大冒险》之后又一部以狗作为主角的影片。影片持续之前两部的温情路线,于今年2月在香港上映时曾取得了1400万港元的票房,再度赚取了观众的眼泪。
 
  《狗狗心事》以胖柴犬“波奇”寻找主人的故事为主线,将11段讲述宠物狗与人之间的情感故事串连起来,由日本7位导演联手执导。与之前两部《导盲犬小Q》和《南极大冒险》相比,该片的主角不再是具有特殊职能的犬种,而是包含了50种不同种类、多达90只狗参与演出,而且主角都是人们身边常见的宠物犬。
 
  该片于今年2月在香港上映时曾邀请陈奕迅、宣萱、卢巧音为其配音,影片上映后也取得了1400万港元的票房。据发行方透露,该片日前正在进行配音制作,沙宝亮已确定担当主要配音演员,并且会根据剧情需要一展歌喉。此外,在内地的首映式上不但会邀请明星携爱犬出席,发行方还将与宠物协会合作,将北京最好的名犬全部展示给观众。
 
  《狗狗心事》香港版粤语配音由陈奕迅、宣萱、周丽淇等配音;在台湾地区上映时,更是重金邀请到著名主持人陶晶莹演唱影片的主题曲Mac&Jack,并收录到其新专辑里。
 


  General #1
    ID : 1 (0x1)
    Complete name : 00000.m2ts
    Format : BDAV
    Format/Info : Blu-ray Video
    File size : 20.3 GiB
    Duration : 1h 27mn
    Overall bit rate mode : Variable
    Overall bit rate : 33.2 Mbps
    Maximum Overall bit rate : 35.5 Mbps
  Video #4113
    ID : 4113 (0x1011)
    Menu ID : 1 (0x1)
    Format : AVC
    Format/Info : Advanced Video Codec
    Format profile : High@L4.1
    Format settings, CABAC : Yes
    Format settings, ReFrames : 4 frames
    Codec ID : 27
    Duration : 1h 27mn
    Bit rate mode : Variable
    Bit rate : 28.8 Mbps
    Maximum bit rate : 38.0 Mbps
    Width : 1 920 pixels
    Height : 1 080 pixels
    Display aspect ratio : 16:9
    Frame rate : 23.976 fps
    Standard : NTSC
    Color space : YUV
    Chroma subsampling : 4:2:0
    Bit depth : 8 bits
    Scan type : Progressive
    Bits/(Pixel*Frame) : 0.579
    Stream size : 17.6 GiB (87%)
    Color primaries : BT.709-5, BT.1361, IEC 61966-2-4, SMPTE RP177
    Transfer characteristics : BT.709-5, BT.1361
    Matrix coefficients : BT.709-5, BT.1361, IEC 61966-2-4 709, SMPTE RP177
  Audio #4352
    ID : 4352 (0x1100)
    Menu ID : 1 (0x1)
    Format : DTS
    Format/Info : Digital Theater Systems
    Format profile : MA / Core
    Muxing mode : Stream extension
    Codec ID : 134
    Duration : 1h 27mn
    Bit rate mode : Variable
    Bit rate : 1 561 Kbps / 1 510 Kbps
    Channel(s) : 6 channels
    Channel positions : Front: L C R, Side: L R, LFE
    Sampling rate : 48.0 KHz
    Bit depth : 16 bits
    Compression mode : Lossless / Lossy
    Language : Japanese
  Audio #4353
    ID : 4353 (0x1101)
    Menu ID : 1 (0x1)
    Format : PCM
    Format settings, Endianness : Big
    Format settings, Sign : Signed
    Muxing mode : Blu-ray
    Codec ID : 128
    Duration : 1h 27mn
    Bit rate mode : Constant
    Bit rate : 1 536 Kbps
    Channel(s) : 2 channels
    Channel positions : Front: L R
    Sampling rate : 48.0 KHz
    Bit depth : 16 bits
    Stream size : 962 MiB (5%)
    Language : Chinese

  评论这张
 
阅读(135)| 评论(0)
推荐 转载

历史上的今天

在LOFTER的更多文章

评论

<#--最新日志,群博日志--> <#--推荐日志--> <#--引用记录--> <#--博主推荐--> <#--随机阅读--> <#--首页推荐--> <#--历史上的今天--> <#--被推荐日志--> <#--上一篇,下一篇--> <#-- 热度 --> <#-- 网易新闻广告 --> <#--右边模块结构--> <#--评论模块结构--> <#--引用模块结构--> <#--博主发起的投票-->
 
 
 
 
 
 
 
 
 
 
 
 
 
 

页脚

网易公司版权所有 ©1997-2017