注册 登录  
 加关注
   显示下一条  |  关闭
温馨提示!由于新浪微博认证机制调整,您的新浪微博帐号绑定已过期,请重新绑定!立即重新绑定新浪微博》  |  关闭

逆风飞翔的鸟

追逐风中散落的默契~

 
 
 

日志

 
 
关于我

曾经迷惑于一份距离 曾经感动于一个传说 …… 在仆仆风中 我伸手 抓住你我的缘分 …… “傻傻”的你 能闻到风中 你我的默契吗?!

网易考拉推荐

【亚洲】The.Lower.Depths.1957.低下层  

2012-01-18 17:24:45|  分类: 亚洲 |  标签: |举报 |字号 订阅

  下载LOFTER 我的照片书  |
【亚洲】The.Lower.Depths.1957.低下层 - 归鸿 - 归鸿影音

◎译  名 低下层/深渊
◎片  名 The Lower Depths/Donzoko
◎年  代 1957
◎国  家 日本
◎类  别 剧情
◎语  言 日语 
◎IMDB链接  http://www.imdb.com/title/tt0050330/
◎片  长 137 min / Japan:124 min / USA:125 min (cut version)
◎导  演 黑泽明 Akira Kurosawa
◎主  演 三船敏郎 Toshiro Mifune  ....Sutekichi the Thief
       香川京子 Ky?ko Kagawa  ....Okayo, Osugi's Sister
       中村雁治郎 Ganjiro Nakamura  ....Rokubei, Osugi's Husband
       千秋实 Minoru Chiaki  ....Former Samurai
       藤原釜足 Kamatari Fujiwara  ....The Actor
       根岸明美 Akemi Negishi  ....Osen the Prostitute
       清川虹子 Nijiko Kiyokawa  ....Otaki the Candy-Seller
       三井弘次 Hideo Mitsui  ....Yoshisaburo the Gambler
       东野英治郎 Eijir? Tono  ....Tomekichi the Tinker
       田中春男 Haruo Tanaka  ....Tatsu
       三好荣子 Eiko Miyoshi  ....Asa, Tomekichi's Wife
       左卜全 Bokuzen Hidari  ....Kahei the Priest
       渡边笃 Atsushi Watanabe  ....Kuna
       上田吉二郎 Kichijiro Ueda  ....Shimazo the Police Agent
       藤木悠 Yu Fujiki  ....Unokichi
       Fujitayama  ....Tsugaru
       山田五十铃 Isuzu Yamada  ....Osugi the Landlady
      
 
◎简  介 
 
  本片的背景是江户时代的贫民窟,那里住著最贫困的小人物,有妓女、小偷、轿夫、唱戏的……不过黑泽明没有把影片处理成一部低沉的悲剧,相反却以滑稽的喜剧手法表现这群小人物的悲惨生活,而达到更深刻有力的效果。

 

  General #1
    ID : 1 (0x1)
    Complete name : 00000.m2ts
    Format : BDAV
    Format/Info : Blu-ray Video
    File size : 36.0 GiB
    Duration : 2h 4mn
    Overall bit rate mode : Variable
    Overall bit rate : 41.2 Mbps
    Maximum Overall bit rate : 35.5 Mbps
  Video #4113
    ID : 4113 (0x1011)
    Menu ID : 1 (0x1)
    Format : AVC
    Format/Info : Advanced Video Codec
    Format profile : High@L4.1
    Format settings, CABAC : Yes
    Format settings, ReFrames : 4 frames
    Codec ID : 27
    Duration : 2h 4mn
    Bit rate mode : Variable
    Bit rate : 39.2 Mbps
    Maximum bit rate : 40.0 Mbps
    Width : 1 920 pixels
    Height : 1 080 pixels
    Display aspect ratio : 16:9
    Frame rate : 23.976 fps
    Color space : YUV
    Chroma subsampling : 4:2:0
    Bit depth : 8 bits
    Scan type : Progressive
    Bits/(Pixel*Frame) : 0.788
    Stream size : 34.2 GiB (95%)
    Color primaries : BT.709-5, BT.1361, IEC 61966-2-4, SMPTE RP177
    Transfer characteristics : BT.709-5, BT.1361
    Matrix coefficients : BT.709-5, BT.1361, IEC 61966-2-4 709, SMPTE RP177
  Audio #4352
    ID : 4352 (0x1100)
    Menu ID : 1 (0x1)
    Format : AC-3
    Format/Info : Audio Coding 3
    Mode extension : CM (complete main)
    Codec ID : 129
    Duration : 2h 4mn
    Bit rate mode : Constant
    Bit rate : 384 Kbps
    Channel(s) : 2 channels
    Channel positions : Front: L R
    Sampling rate : 48.0 KHz
    Bit depth : 16 bits
    Compression mode : Lossy
    Stream size : 343 MiB (1%)
    Language : Japanese
  Text #4608
    ID : 4608 (0x1200)
    Menu ID : 1 (0x1)
    Format : PGS
    Codec ID : 144
    Duration : 2h 4mn
    Delay relative to video : 1s 1ms
    Language : Chinese

  评论这张
 
阅读(302)| 评论(0)
推荐 转载

历史上的今天

在LOFTER的更多文章

评论

<#--最新日志,群博日志--> <#--推荐日志--> <#--引用记录--> <#--博主推荐--> <#--随机阅读--> <#--首页推荐--> <#--历史上的今天--> <#--被推荐日志--> <#--上一篇,下一篇--> <#-- 热度 --> <#-- 网易新闻广告 --> <#--右边模块结构--> <#--评论模块结构--> <#--引用模块结构--> <#--博主发起的投票-->
 
 
 
 
 
 
 
 
 
 
 
 
 
 

页脚

网易公司版权所有 ©1997-2017