注册 登录  
 加关注
   显示下一条  |  关闭
温馨提示!由于新浪微博认证机制调整,您的新浪微博帐号绑定已过期,请重新绑定!立即重新绑定新浪微博》  |  关闭

逆风飞翔的鸟

追逐风中散落的默契~

 
 
 

日志

 
 
关于我

曾经迷惑于一份距离 曾经感动于一个传说 …… 在仆仆风中 我伸手 抓住你我的缘分 …… “傻傻”的你 能闻到风中 你我的默契吗?!

网易考拉推荐

【亚洲】Drunken.Angel.1948.泥醉天使  

2012-01-18 17:14:37|  分类: 亚洲 |  标签: |举报 |字号 订阅

  下载LOFTER 我的照片书  |
【亚洲】Drunken.Angel.1948.泥醉天使 - 归鸿 - 归鸿影音

◎译  名 泥醉天使/酩酊天使
◎片  名 Drunken Angel 
◎年  代 1948
◎国  家 日本
◎类  别 黑色电影/惊悚/剧情/犯罪
◎语  言 日语 
◎IMDB链接  http://www.imdb.com/title/tt0040979/
◎片  长 98 min / Japan:150 min (director's cut) / USA:102 min
◎导  演 黑泽明 Akira Kurosawa
◎主  演 志村乔 Takashi Shimura  ....Doctor Sanada
       三船敏郎 Toshiro Mifune  ....Matsunaga
       山本礼三郎 Reizabur? Yamamoto  ....Okada
       木暮实千代 Michiyo Kogure  ....Nanae
       中北千枝子 Chieko Nakakita  ....Nurse Miyo
       千石规子 Noriko Sengoku  ....Gin
       笠置静子 Shizuko Kasagi  ....Singer
       进藤英太郎 Eitar? Shind?  ....Takahama
       清水将夫 Masao Shimizu  ....Boss
       殿山泰司 Taiji Tonoyama  ....Shop Proprietor
       久我美子 Yoshiko Kuga  ....Schoolgirl
       饭田蝶子 Ch?ko Iida  ....Old maid servant
       生方功 Isamu Ikukata  ....Punk
       谷晃 Akira Tani  ....Yakuza Follower
       堺左千夫 Sachio Sakai  ....Guitar Player
       河崎坚男 Katao Kawasaki  ....Flower Shop Proprietor
       木匠久美子 Kumiko Kisho  ....Daughter at Flower Shop
       川久保敏子 Toshiko Kawakubo  ....Dancer
       登山晴子 Haruko Toyama  ....Dancer
       南部雪枝 Yukie Nanbu  ....Dancer
       杉叶子 Y?ko Sugi  ....Dancer
       城木菫 Sumire Shiroki  ....Anego
      
 
◎简  介 
 
  影片描述了在二次大战后的日本,透过绝望与希望,混乱与秩序的夹杂,在动荡的时代中无所适从的人心来隐喻战败后彷徨无助的日本。日本满目疮痍,到处充斥疾病与失业的毫无人生希望的灰色画面。一个日日买醉的医生给一位年轻力壮的无赖汉治心病和肺病而未成功,松永的兄弟冈田也来到此地。冈田的歌声勾起了美代的回忆,美代是他的女人,他来的目的就是要带走她,松永出面阻止失败后,因刺杀冈田未果,反被刺身亡,而冈田对松永的死法,深感痛惜。
 

◎幕后制作
 
    这是日本电影巨匠黑泽明的作品。他本来是要着重刻划真田医生并以松永作为反面人物来处理的,但是导演对松永的喜欢远远超过了真田,他在松永被刺倒下时,运用了从俯拍到推近再后拉的镜头变化,构成了对松永的告别式。影片在构图、音乐、光线、录音等的运用等都是别具创新意识的。三船敏郎成功地塑造了一个不相信任何人、我行我素的硬汉流氓的形象,他的表演既朴素又灵活,给观众留下了悲剧英雄的印象,此片入选日本名片200部。
 

◎获奖情况
 
1949年 Mainichi Film Concours(Mainichi Film Concours) 最佳摄影 Takeo It?
1949年 Mainichi Film Concours(Mainichi Film Concours) 最佳影片 黑泽明
1949年 Mainichi Film Concours(Mainichi Film Concours) Best Film Score 早坂文雄

 

  General #1
    ID : 1 (0x1)
    Complete name : 00000.m2ts
    Format : BDAV
    Format/Info : Blu-ray Video
    File size : 28.3 GiB
    Duration : 1h 38mn
    Overall bit rate mode : Variable
    Overall bit rate : 41.2 Mbps
    Maximum Overall bit rate : 35.5 Mbps
  Video #4113
    ID : 4113 (0x1011)
    Menu ID : 1 (0x1)
    Format : AVC
    Format/Info : Advanced Video Codec
    Format profile : High@L4.1
    Format settings, CABAC : Yes
    Format settings, ReFrames : 4 frames
    Codec ID : 27
    Duration : 1h 38mn
    Bit rate mode : Variable
    Bit rate : 39.2 Mbps
    Maximum bit rate : 40.0 Mbps
    Width : 1 920 pixels
    Height : 1 080 pixels
    Display aspect ratio : 16:9
    Frame rate : 23.976 fps
    Color space : YUV
    Chroma subsampling : 4:2:0
    Bit depth : 8 bits
    Scan type : Progressive
    Bits/(Pixel*Frame) : 0.788
    Stream size : 26.9 GiB (95%)
    Color primaries : BT.709-5, BT.1361, IEC 61966-2-4, SMPTE RP177
    Transfer characteristics : BT.709-5, BT.1361
    Matrix coefficients : BT.709-5, BT.1361, IEC 61966-2-4 709, SMPTE RP177
  Audio #4352
    ID : 4352 (0x1100)
    Menu ID : 1 (0x1)
    Format : AC-3
    Format/Info : Audio Coding 3
    Mode extension : CM (complete main)
    Codec ID : 129
    Duration : 1h 38mn
    Bit rate mode : Constant
    Bit rate : 384 Kbps
    Channel(s) : 2 channels
    Channel positions : Front: L R
    Sampling rate : 48.0 KHz
    Bit depth : 16 bits
    Compression mode : Lossy
    Stream size : 270 MiB (1%)
    Language : Japanese
  Text #4608
    ID : 4608 (0x1200)
    Menu ID : 1 (0x1)
    Format : PGS
    Codec ID : 144
    Duration : 1h 37mn
    Delay relative to video : 1s 43ms
    Language : Chinese

  评论这张
 
阅读(243)| 评论(0)
推荐 转载

历史上的今天

在LOFTER的更多文章

评论

<#--最新日志,群博日志--> <#--推荐日志--> <#--引用记录--> <#--博主推荐--> <#--随机阅读--> <#--首页推荐--> <#--历史上的今天--> <#--被推荐日志--> <#--上一篇,下一篇--> <#-- 热度 --> <#-- 网易新闻广告 --> <#--右边模块结构--> <#--评论模块结构--> <#--引用模块结构--> <#--博主发起的投票-->
 
 
 
 
 
 
 
 
 
 
 
 
 
 

页脚

网易公司版权所有 ©1997-2017