注册 登录  
 加关注
   显示下一条  |  关闭
温馨提示!由于新浪微博认证机制调整,您的新浪微博帐号绑定已过期,请重新绑定!立即重新绑定新浪微博》  |  关闭

逆风飞翔的鸟

追逐风中散落的默契~

 
 
 

日志

 
 
关于我

曾经迷惑于一份距离 曾经感动于一个传说 …… 在仆仆风中 我伸手 抓住你我的缘分 …… “傻傻”的你 能闻到风中 你我的默契吗?!

网易考拉推荐

【剧情】Menschen.Am.Sonntag·People.On.Sunday.1929.星期天的人们  

2012-01-15 19:25:21|  分类: 剧情 |  标签: |举报 |字号 订阅

  下载LOFTER 我的照片书  |
【剧情】Menschen.Am.Sonntag·People.On.Sunday.1929.星期天的人们 - 归鸿 - 归鸿影音

◎片  名 People On Sunday
◎译  名 星期天的人们/星期天的约会
◎年  代 1930
◎国  家 德国
◎类  别 喜剧/剧情/爱情
◎语  言 无声
◎IMDB链接  http://www.imdb.com/title/tt0020163/
◎片  长 74 minutes 
◎导  演 Curt Siodmak
       罗伯特·西奥德梅克 Robert Siodmak
◎主  演 Erwin Splettst??er .... Himself (taxi driver)
       Brigitte Borchert .... Herself (record seller)
       Wolfgang von Waltershausen .... Himself (wine seller)
       Christl Ehlers .... Herself (an extra in films)
       Annie Schreyer .... Herself (model)
       rest of cast listed alphabetically:
       Kurt Gerron .... Himself
       Valeska Gert .... Herself
       Heinrich Gretler .... Himself
       Ern? Verebes .... Himself
     
 
◎简  介
 
  酒代理商伏尔夫对大城市里一层不变的生活感到厌倦,他十分爱好社交。一天,他在街上偶然认识了一位配角女演员克丽斯特,两个人相谈很愉快,伏尔夫便邀请她星期天一起外出郊游。当晚伏尔夫与开出租汽车司机的朋友埃尔温在一起打牌,同样邀请了埃尔温带上女朋友安妮星期天一起外出郊游。可是安妮不喜欢外出,宁可一个人待在家里。碰巧的是,克丽斯特带来了一位女友布丽吉特,她是一个销售员。四个年轻人一起结伴到郊外坐船,散步,太阳浴,大家玩得非常尽兴。伏尔夫对布丽吉特简直就是一见钟情,他抛下了克丽斯特,与新结识的女友躲进了森林。傍晚四个年轻人又回到了城里,埃尔温发现安妮仍躺在床上,她睡了整整一个星期天。
 
◎幕后制作
 
  本影片是一部黑白无声片,导演的视角非常独特,描写了生活在柏林的工人以及普通人星期天二十四小时的生活细节。重点在表现城市里的人,为了逃避日复一日的日常生活跑到城外去,结果仍未能得到真正的自由和解脱。像一部纪录片,非常具有真实性,但是有穿插了一些戏剧化的故事情节,写法很有新意,而且影片有一定的社会意义。
 


  General #1
    ID : 1 (0x1)
    Complete name : 00000.m2ts
    Format : BDAV
    Format/Info : Blu-ray Video
    File size : 21.4 GiB
    Duration : 1h 14mn
    Overall bit rate mode : Variable
    Overall bit rate : 41.5 Mbps
    Maximum Overall bit rate : 35.5 Mbps
  Video #4113
    ID : 4113 (0x1011)
    Menu ID : 1 (0x1)
    Format : AVC
    Format/Info : Advanced Video Codec
    Format profile : High@L4.1
    Format settings, CABAC : Yes
    Format settings, ReFrames : 4 frames
    Codec ID : 27
    Duration : 1h 14mn
    Bit rate mode : Variable
    Bit rate : 35.2 Mbps
    Maximum bit rate : 37.0 Mbps
    Width : 1 920 pixels
    Height : 1 080 pixels
    Display aspect ratio : 16:9
    Frame rate : 29.970 fps
    Color space : YUV
    Chroma subsampling : 4:2:0
    Bit depth : 8 bits
    Scan type : MBAFF
    Bits/(Pixel*Frame) : 0.566
    Stream size : 18.2 GiB (85%)
  Audio #4352
    ID : 4352 (0x1100)
    Menu ID : 1 (0x1)
    Format : PCM
    Format settings, Endianness : Big
    Format settings, Sign : Signed
    Muxing mode : Blu-ray
    Codec ID : 128
    Duration : 1h 14mn
    Bit rate mode : Constant
    Bit rate : 2 304 Kbps
    Channel(s) : 2 channels
    Channel positions : Front: L R
    Sampling rate : 48.0 KHz
    Bit depth : 24 bits
    Stream size : 1.19 GiB (6%)
    Language : German
  Audio #4353
    ID : 4353 (0x1101)
    Menu ID : 1 (0x1)
    Format : PCM
    Format settings, Endianness : Big
    Format settings, Sign : Signed
    Muxing mode : Blu-ray
    Codec ID : 128
    Duration : 1h 14mn
    Bit rate mode : Constant
    Bit rate : 2 304 Kbps
    Channel(s) : 2 channels
    Channel positions : Front: L R
    Sampling rate : 48.0 KHz
    Bit depth : 24 bits
    Stream size : 1.19 GiB (6%)
    Language : German
  Text #4608
    ID : 4608 (0x1200)
    Menu ID : 1 (0x1)
    Format : PGS
    Codec ID : 144
    Language : Chinese
  Text #4609
    ID : 4609 (0x1201)
    Menu ID : 1 (0x1)
    Format : PGS
    Codec ID : 144
    Language : Chinese
  Text #4610
    ID : 4610 (0x1202)
    Menu ID : 1 (0x1)
    Format : PGS
    Codec ID : 144
    Language : Chinese
  Text #4611
    ID : 4611 (0x1203)
    Menu ID : 1 (0x1)
    Format : PGS
    Codec ID : 144
    Language : English

  评论这张
 
阅读(117)| 评论(0)
推荐 转载

历史上的今天

在LOFTER的更多文章

评论

<#--最新日志,群博日志--> <#--推荐日志--> <#--引用记录--> <#--博主推荐--> <#--随机阅读--> <#--首页推荐--> <#--历史上的今天--> <#--被推荐日志--> <#--上一篇,下一篇--> <#-- 热度 --> <#-- 网易新闻广告 --> <#--右边模块结构--> <#--评论模块结构--> <#--引用模块结构--> <#--博主发起的投票-->
 
 
 
 
 
 
 
 
 
 
 
 
 
 

页脚

网易公司版权所有 ©1997-2017