注册 登录  
 加关注
   显示下一条  |  关闭
温馨提示!由于新浪微博认证机制调整,您的新浪微博帐号绑定已过期,请重新绑定!立即重新绑定新浪微博》  |  关闭

逆风飞翔的鸟

追逐风中散落的默契~

 
 
 

日志

 
 
关于我

曾经迷惑于一份距离 曾经感动于一个传说 …… 在仆仆风中 我伸手 抓住你我的缘分 …… “傻傻”的你 能闻到风中 你我的默契吗?!

网易考拉推荐

【动作】Route.Irish.2010.爱尔兰路  

2012-01-12 09:42:50|  分类: 动作 |  标签: |举报 |字号 订阅

  下载LOFTER 我的照片书  |
【动作】Route.Irish.2010.爱尔兰路 - 归鸿 - 归鸿影音

◎译  名 爱尔兰路/最危险的路
◎片  名 Route Irish
◎年  代 2010
◎国  家 英国/法国/意大利/印度/比利时/西班牙
◎类  别 剧情
◎语  言 英语
◎IMDB链接  http://www.imdb.com/title/tt1528312
◎片  长 109 Mins
◎导  演 肯·罗奇 Ken Loach
◎主  演 Stephen Lord ....Steve
       John Bishop
       纳瓦·尼姆利 Najwa Nimri
       Mark Womack
       Andrea Lowe
       John Bishop
       Trevor Williams
       Talib Hamafraj
       Gary Cargill
       Tony Schumacher ....Andy
       

◎影片介绍 
 
  影片故事发生在伊拉克,讲述的是两个私人保安承包商(弗兰克和弗格斯)在充斥着暴力和贪婪的巴格达生存。不幸的是,弗兰克在连接巴格达机场和“绿区”间(注:伊拉克战争后,美英等国家在巴格达建立的一个“安全区”)一条名为“Route Irish”的路上被杀,悲伤的弗格斯为了找到真凶,亲自调查朋友的死因……
 
    赴伊拉克担任保全的法兰基与佛格斯两人友谊深厚。但法兰基在路上遭叛军枪击,佛格斯为好友之死悲伤万分,他与法兰基女友在人生低点相濡以沫,两人会产生什么样的火花?
 
  1976年8月,利物浦。5岁的Fergus在上学的第一天认识了Frankie。他们之后形影不离。少年时代,他们一起跷课去Mersey河的渡轮上喝苹果酒,梦想着周游世界。但Fergus没想到他的梦想因为他加入英国特种精英部队(SAS)而得以实现。
 
  在2004年9月辞职之后,Fergus说服了Frankie(他之前当过伞兵)在巴格达组建了安保小组,月薪是1万英镑,而且不用缴税。由于在战争中私有化日益加剧,他们决定干最后一票。他们一起将在一个暴力、恐怖和贪婪统治的城市堵上自己的性命。这个城市涌入了亿万美元。2007年9月,Frankie在世界上最危险的路"Route Irish"上身亡。被悲伤笼罩的Fergus于是回到了利物浦。他拒绝官方的Frankie死因解释,自己着手进行关于好友死亡的调查。只有Frankie的伴侣Rachel了解他有多痛苦和多拼命地寻找线索。当Fergus试着揭开Frankie在"Route Irish"上死亡的真相时,他和Rachel渐渐走到一起。随着越来越接近真相,Fergus努力重新找回自己,并重新获得在20年之前,在Mersey河上,和Frankie一起度过的欢乐时光。
 
  1976年8月,利物浦。5岁的Fergus在上学的第一天认识了Frankie。他们之后形影不离。少年时代,他们一起跷课去Mersey河的渡轮上喝苹果酒,梦想着周游世界。但Fergus没想到他的梦想因为他加入英国特种精英部队(SAS)而得以实现。
 
  在2004年9月辞职之后,Fergus说服了Frankie(他之前当过伞兵)在巴格达组建了安保小组,月薪是1万英镑,而且不用缴税。由于在战争中私有化日益加剧,他们决定干最后一票。他们一起将在一个暴力、恐怖和贪婪统治的城市堵上自己的性命。这个城市涌入了亿万美元。2007年9 月,Frankie在世界上最危险的路"Route Irish"上身亡。被悲伤笼罩的Fergus于是回到了利物浦。他拒绝官方的Frankie死因解释,自己着手进行关于好友死亡的调查。只有 Frankie的伴侣Rachel了解他有多痛苦和多拼命地寻找线索。当Fergus试着揭开Frankie在"Route Irish"上死亡的真相时,他和Rachel渐渐走到一起。随着越来越接近真相,Fergus努力重新找回自己,并重新获得在20年之前,在 Mersey河上,和Frankie一起度过的欢乐时光。
 
幕后制作
 
  【创作谈】
 
  肯·罗奇解释影片的由来:
 
  我一直想拍摄一部关于伊拉克战争的影片。问题是该怎么办,因为这是在伊拉克人民身上犯下的恐怖罪行。影片的挑战是找到一条揭露那边所发生的一切的线索。因为到了今天光是义愤填膺是不够的。不幸的是,一部影片不能代替一场政治运动,在伊拉克改变什么。
 
  保罗·拉弗蒂(编剧)关于在伊拉克冲突中的雇佣军:
 
  我为了这部影片和一些在伊拉克作战的雇佣军讨论过。我意识到他们把自己看作是这场战争的分包商,以这个名义,他们所犯下的罪行就不能被追究了。那些人为自己哀悼。今时今日,他们努力想搞清楚自己一直是什么身份。
 
  肯·罗奇谈关于坐水凳(waterboarding,一种将受害者的头浸在水中以获取供词的酷刑。英军和美军在伊拉克使用过)
 
  坐水凳简单的说就是一场刽子手和受害者的战争。把这种刑罚推广的是那些今天“大声疾呼”尊重人权宣言的人,而这所有的一切都以我们的名义。为了拍这一幕,我们真的让主演遭受了酷刑,因为我们为他准备的呼吸管失灵了。

 

  General #1
    ID : 1 (0x1)
    Complete name : 00000.m2ts
    Format : BDAV
    Format/Info : Blu-ray Video
    File size : 21.9 GiB
    Duration : 1h 48mn
    Overall bit rate mode : Variable
    Overall bit rate : 28.8 Mbps
    Maximum Overall bit rate : 35.5 Mbps
  Video #4113
    ID : 4113 (0x1011)
    Menu ID : 1 (0x1)
    Format : AVC
    Format/Info : Advanced Video Codec
    Format profile : High@L4.1
    Format settings, CABAC : Yes
    Format settings, ReFrames : 4 frames
    Codec ID : 27
    Duration : 1h 48mn
    Bit rate mode : Variable
    Bit rate : 25.7 Mbps
    Maximum bit rate : 35.0 Mbps
    Width : 1 920 pixels
    Height : 1 080 pixels
    Display aspect ratio : 16:9
    Frame rate : 24.000 fps
    Standard : NTSC
    Color space : YUV
    Chroma subsampling : 4:2:0
    Bit depth : 8 bits
    Scan type : Progressive
    Bits/(Pixel*Frame) : 0.516
    Stream size : 19.5 GiB (89%)
    Color primaries : BT.709-5, BT.1361, IEC 61966-2-4, SMPTE RP177
    Transfer characteristics : BT.709-5, BT.1361
    Matrix coefficients : BT.709-5, BT.1361, IEC 61966-2-4 709, SMPTE RP177
  Audio #4352
    ID : 4352 (0x1100)
    Menu ID : 1 (0x1)
    Format : AC-3
    Format/Info : Audio Coding 3
    Mode extension : CM (complete main)
    Codec ID : 129
    Duration : 1h 48mn
    Bit rate mode : Constant
    Bit rate : 448 Kbps
    Channel(s) : 6 channels
    Channel positions : Front: L C R, Side: L R, LFE
    Sampling rate : 48.0 KHz
    Bit depth : 16 bits
    Compression mode : Lossy
    Stream size : 348 MiB (2%)
    Language : English
  Audio #4353
    ID : 4353 (0x1101)
    Menu ID : 1 (0x1)
    Format : DTS
    Format/Info : Digital Theater Systems
    Format profile : MA / Core
    Muxing mode : Stream extension
    Codec ID : 134
    Duration : 1h 48mn
    Bit rate mode : Variable
    Bit rate : 1 561 Kbps / 1 510 Kbps
    Channel(s) : 6 channels
    Channel positions : Front: L C R, Side: L R, LFE
    Sampling rate : 48.0 KHz
    Bit depth : 16 bits
    Compression mode : Lossless / Lossy
    Language : English

  评论这张
 
阅读(133)| 评论(0)
推荐 转载

历史上的今天

在LOFTER的更多文章

评论

<#--最新日志,群博日志--> <#--推荐日志--> <#--引用记录--> <#--博主推荐--> <#--随机阅读--> <#--首页推荐--> <#--历史上的今天--> <#--被推荐日志--> <#--上一篇,下一篇--> <#-- 热度 --> <#-- 网易新闻广告 --> <#--右边模块结构--> <#--评论模块结构--> <#--引用模块结构--> <#--博主发起的投票-->
 
 
 
 
 
 
 
 
 
 
 
 
 
 

页脚

网易公司版权所有 ©1997-2017